Paranormal.Resurrection.Die.Schatten.Der.Ex.German.2014.AC3.BDRiP.XVID-OMS

21. April 2016 von
Paranormal.Resurrection.Die.Schatten.Der.Ex.German.2014.AC3.BDRiP.XVID-OMS Warez-World
Aufrufe: 21 Hits
Vote 4 Us
Release:
Paranormal Resurrection - Die Schatten der Ex BD-RIP
Genre:
Drama
Größe:
894 MB
Passwort:
Warez-World.org
Sprachen:
Video Codec:
MPEG-4 DivX / Xvid
Audio Stream:
Dolby Digital 5.1
Bewertung:
Video Vorschau:
Online Stream:
Info:
Zeige NFOVerberge NFO
General
Format                                   : AVI
Format/Info                              : Audio Video Interleave
File size                                : 894 MiB
Duration                                 : 1h 28mn
Overall bit rate                         : 1 416 Kbps
Movie name                               : Paranormal.Resurrection.Die.Schatten.der.Ex.German.2014.AC3.BDRiP.XVID-OMS
Genre                                    : Horror
Recorded date                            : 2014
Writing application                      : Lavf57.2.100

Video
ID                                       : 0
Format                                   : MPEG-4 Visual
Format settings, BVOP                    : No
Format settings, QPel                    : No
Format settings, GMC                     : No warppoints
Format settings, Matrix                  : Default (H.263)
Codec ID                                 : DIVX
Codec ID/Info                            : Project Mayo
Codec ID/Hint                            : DivX 4
Duration                                 : 1h 28mn
Bit rate                                 : 957 Kbps
Width                                    : 720 pixels
Height                                   : 404 pixels
Display aspect ratio                     : 16:9
Frame rate                               : 24.000 fps
Color space                              : YUV
Chroma subsampling                       : 4:2:0
Bit depth                                : 8 bits
Scan type                                : Progressive
Compression mode                         : Lossy
Bits/(Pixel*Frame)                       : 0.137
Stream size                              : 605 MiB (68%)
Writing library                          : XviD 67

Audio
ID                                       : 1
Format                                   : AC-3
Format/Info                              : Audio Coding 3
Mode extension                           : CM (complete main)
Format settings, Endianness              : Big
Codec ID                                 : 2000
Duration                                 : 1h 28mn
Bit rate mode                            : Constant
Bit rate                                 : 448 Kbps
Channel(s)                               : 6 channels
Channel positions                        : Front: L C R, Side: L R, LFE
Sampling rate                            : 48.0 KHz
Bit depth                                : 16 bits
Compression mode                         : Lossy
Stream size                              : 283 MiB (32%)
Alignment                                : Aligned on interleaves
Interleave, duration                     : 32 ms (0.77 video frame)
Language                                 : German

Beschreibung:
Paranormal.Resurrection.Die.Schatten.Der.Ex.German.2014.AC3.BDRiP.XVID-OMS
Die junge Bloggerin und Drehbuchautorin Anna Parker wird schon seit geraumer Zeit von furchtbaren Albträumen gequält, in denen sie aufgrund einer Schlafparalyse wie gelähmt zu sein scheint. Um sich zu erholen, schlägt ihr Freund Paul vor, sich einige Tage in sein Haus in der Wüste zurückzuziehen, um fernab von Trubel und Hektik etwas Entspannung zu finden. Doch im großzügig eingerichteten Luxusanwesen inmitten der Kalifornischen Wüste fangen die Albträume an sich zu intensivieren und nehmen immer mehr Gestalt an. Etwas versucht mit der verängstigten Anna Kontakt aufnehmen und hinterlässt Botschaften, die bald ein schockierendes Ganzes ergeben. Welche Rolle spielt dabei ihr Partner Paul?
Direct Download Links | DDL-Links

Ähnliche Releases der Kategorie