Pay.The.Ghost.German.2015.AC3.BDRiP.XVID-OMS

21. April 2016 von
Pay.The.Ghost.German.2015.AC3.BDRiP.XVID-OMS Warez-World
Aufrufe: 21 Hits
Vote 4 Us
Release:
Pay The Ghost BD-RIP
Genre:
Drama
Größe:
1132 MB
Passwort:
Warez-World.org
Sprachen:
Video Codec:
MPEG-4 DivX / Xvid
Audio Stream:
Dolby Digital 5.1
Bewertung:
Video Vorschau:
Online Stream:
Info:
Zeige NFOVerberge NFO
General
Format                                   : AVI
Format/Info                              : Audio Video Interleave
Format profile                           : OpenDML
File size                                : 1.11 GiB
Duration                                 : 1h 34mn
Overall bit rate                         : 1 674 Kbps
Movie name                               : Pay.The.Ghost.German.2015.AC3.BDRiP.XVID-OMS
Genre                                    : Thriller
Recorded date                            : 2015
Writing application                      : Lavf57.2.100

Video
ID                                       : 0
Format                                   : MPEG-4 Visual
Format settings, BVOP                    : No
Format settings, QPel                    : No
Format settings, GMC                     : No warppoints
Format settings, Matrix                  : Default (H.263)
Codec ID                                 : DIVX
Codec ID/Info                            : Project Mayo
Codec ID/Hint                            : DivX 4
Duration                                 : 1h 34mn
Bit rate                                 : 1 212 Kbps
Width                                    : 720 pixels
Height                                   : 300 pixels
Display aspect ratio                     : 2.40:1
Frame rate                               : 24.000 fps
Color space                              : YUV
Chroma subsampling                       : 4:2:0
Bit depth                                : 8 bits
Scan type                                : Progressive
Compression mode                         : Lossy
Bits/(Pixel*Frame)                       : 0.234
Stream size                              : 819 MiB (72%)
Writing library                          : XviD 67

Audio
ID                                       : 1
Format                                   : AC-3
Format/Info                              : Audio Coding 3
Mode extension                           : CM (complete main)
Format settings, Endianness              : Big
Codec ID                                 : 2000
Duration                                 : 1h 34mn
Bit rate mode                            : Constant
Bit rate                                 : 448 Kbps
Channel(s)                               : 6 channels
Channel positions                        : Front: L C R, Side: L R, LFE
Sampling rate                            : 48.0 KHz
Bit depth                                : 16 bits
Compression mode                         : Lossy
Stream size                              : 303 MiB (27%)
Alignment                                : Aligned on interleaves
Interleave, duration                     : 32 ms (0.77 video frame)
Language                                 : German

Beschreibung:
Pay.The.Ghost.German.2015.AC3.BDRiP.XVID-OMS
Professor Mike Lawford hat wegen seiner Arbeit wenig Zeit für seine Familie. Trotzdem möchte er wenigstens sein Versprechen halten und mit seinem Sohn Charlie auf eine Halloweenparade gehen. Gerade noch amüsieren sich beide, im nächsten Augenblick ist Charlie plötzlich spurlos verschwunden. Ein Jahr später ist die Suche nach Charlie erfolglos geblieben, bis der von Schuldgefühlen zerfressene Mike von bedrohlichen, traumähnlichen Bildern heimgesucht wird: Er glaubt, dass Charlie irgendwie mit ihm Kontakt aufzunehmen versucht. Zusammen mit seiner von ihm entfremdeten Ehefrau Kristen begibt sich Mike auf eine Suche, die ihn an seinem Verstand zweifeln lässt: Wurde Charlie von einem rachsüchtigen Geist verschleppt? Und es scheint nicht mehr viel Zeit zu bleiben, bis Charlie für immer verloren sein wird...
Direct Download Links | DDL-Links

Ähnliche Releases der Kategorie