Pets.2016.GERMAN.AC3.LiNE.DUBBED.TS.x264-GOT

6. August 2016 von
Pets.2016.GERMAN.AC3.LiNE.DUBBED.TS.x264-GOT Warez-World
Aufrufe: 78 Hits
Vote 4 Us
Release:
Pets TS
Genre:
Animation
Laufzeit:
87 Min.
Größe:
1540 MB
Passwort:
Warez-World.org
Sprachen:
Video Codec:
MPEG-4 H.264 / AVC
Audio Stream:
Line
Bewertung:
Video Vorschau:
Online Stream:
Info:
Zeige NFOVerberge NFO
General
Format                                   : Matroska
Format version                           : Version 4 / Version 2
File size                                : 1.50 GiB
Duration                                 : 1h 23mn
Overall bit rate                         : 2 585 Kbps
Encoded date                             : UTC 2016-07-29 23:29:37
Writing application                      : Lavf57.44.100
Writing library                          : Lavf57.44.100

Video
ID                                       : 1
Format                                   : AVC
Format/Info                              : Advanced Video Codec
Format settings, CABAC                   : Yes
Format settings, ReFrames                : 2 frames
Codec ID                                 : V_MPEG4/ISO/AVC
Duration                                 : 1h 23mn
Bit rate                                 : 2 400 Kbps
Width                                    : 720 pixels
Height                                   : 376 pixels
Display aspect ratio                     : 1.904
Original display aspect ratio            : 1.905
Frame rate mode                          : Constant
Frame rate                               : 25.000 fps
Color space                              : YUV
Chroma subsampling                       : 4:2:0
Bit depth                                : 8 bits
Scan type                                : Progressive
Bits/(Pixel*Frame)                       : 0.355
Stream size                              : 1.36 GiB (91%)
Writing library                          : x264 core 148 r2643
Encoding settings                        : cabac=1 / ref=2 / deblock=1:0:0 / analyse=0x1:0x131 / me=hex / subme=7 / psy=1 / psy_rd=1.00:0.00 / mixed_ref=0 / me_range=16 / chroma_me=1 / trellis=1 / 8x8dct=0 / cqm=0 / deadzone=21,11 / fast_pskip=1 / chroma_qp_offset=-2 / threads=12 / lookahead_threads=2 / sliced_threads=0 / nr=0 / decimate=1 / interlaced=0 / bluray_compat=0 / constrained_intra=0 / bframes=3 / b_pyramid=0 / b_adapt=1 / b_bias=0 / direct=0 / weightb=1 / open_gop=0 / weightp=2 / keyint=250 / keyint_min=25 / scenecut=40 / intra_refresh=0 / rc_lookahead=40 / rc=abr / mbtree=1 / bitrate=2400 / ratetol=1.0 / qcomp=0.60 / qpmin=10 / qpmax=69 / qpstep=4 / vbv_maxrate=24000 / vbv_bufsize=24000 / nal_hrd=none / filler=0 / ip_ratio=1.40 / aq=3:1.00
Language                                 : English
Default                                  : Yes
Forced                                   : Yes
DURATION                                 : 01:23:17.320000000

Audio
ID                                       : 2
Format                                   : AC-3
Format/Info                              : Audio Coding 3
Mode extension                           : CM (complete main)
Format settings, Endianness              : Big
Codec ID                                 : A_AC3
Duration                                 : 1h 23mn
Bit rate mode                            : Constant
Bit rate                                 : 192 Kbps
Channel(s)                               : 2 channels
Channel positions                        : Front: L R
Sampling rate                            : 48.0 KHz
Compression mode                         : Lossy
Stream size                              : 114 MiB (7%)
Language                                 : German
Default                                  : Yes
Forced                                   : Yes
DURATION                                 : 01:23:17.344000000

Beschreibung:
Pets.2016.GERMAN.AC3.LiNE.DUBBED.TS.x264-GOT
Die ganze Wahrheit über das aufregende Eigenleben unserer tierischen Mitbewohner beantwortet der Animationsfilm PETS. Denn wer hat sich noch nicht die Frage gestellt: Was machen eigentlich unsere Haustiere, während wir den ganzen Tag auf der Arbeit oder in der Schule sind?
Direct Download Links | DDL-Links

Ähnliche Releases der Kategorie