Prison.Break.S01.-.S04.German.DL.DTS.BluRay.1080p.x264-x264Crew

27. Oktober 2016 von
Prison.Break.S01.-.S04.German.DL.DTS.BluRay.1080p.x264-x264Crew Warez-World
Aufrufe: 59 Hits
Vote 4 Us
Release:
Prison Break S01 - S04 BD
Genre:
Drama
Laufzeit:
45 Min.
Größe:
362664 MB
Passwort:
Warez-World.org
Sprachen:
Video Codec:
MPEG-4 H.264 / AVC
Audio Stream:
DTS 5.1
Bewertung:
Video Vorschau:
Online Stream:
Hinweise:
.mkv
Info:
Zeige NFOVerberge NFO
General
Format                      : Matroska
Format version              : Version 2
File size                   : 4.36 GiB
Duration                    : 43mn 42s
Overall bit rate            : 14.3 Mbps
Encoded date                : UTC 2009-12-12 22:51:36
Writing application         : mkvmerge v2.9.7 ('Tenderness') built on Jul  1 2009 18:43:35
Writing library             : libebml v0.7.7 + libmatroska v0.8.1

Video
ID                          : 1
Format                      : AVC
Format/Info                 : Advanced Video Codec
Format profile              : High@L4.1
Format settings, CABAC      : Yes
Format settings, ReFrames   : 4 frames
Codec ID                    : V_MPEG4/ISO/AVC
Duration                    : 43mn 42s
Bit rate                    : 12.0 Mbps
Width                       : 1 920 pixels
Height                      : 1 080 pixels
Display aspect ratio        : 16:9
Frame rate mode             : Constant
Frame rate                  : 23.976 fps
Color space                 : YUV
Chroma subsampling          : 4:2:0
Bit depth                   : 8 bits
Scan type                   : Progressive
Bits/(Pixel*Frame)          : 0.241
Stream size                 : 3.58 GiB (82%)
Writing library             : x264 core 80 r1373 4322f63
Encoding settings           : cabac=1 / ref=4 / deblock=1:-2:-2 / analyse=0x3:0x113 / me=umh / subme=9 / psy=1 / psy_rd=1.3:0.0 / mixed_ref=1 / me_range=24 / chroma_me=1 / trellis=2 / 8x8dct=1 / cqm=0 / deadzone=21,11 / fast_pskip=0 / chroma_qp_offset=-2 / threads=6 / sliced_threads=0 / nr=0 / decimate=0 / mbaff=0 / constrained_intra=0 / bframes=4 / b_pyramid=0 / b_adapt=2 / b_bias=5 / direct=3 / wpredb=1 / wpredp=2 / keyint=250 / keyint_min=25 / scenecut=40 / rc_lookahead=40 / rc=2pass / mbtree=1 / bitrate=12000 / ratetol=1.0 / qcomp=0.60 / qpmin=10 / qpmax=51 / qpstep=4 / cplxblur=20.0 / qblur=0.5 / vbv_maxrate=40000 / vbv_bufsize=30000 / ip_ratio=1.40 / aq=1:1.50
Language                    : English
Default                     : Yes
Forced                      : No

Audio #1
ID                          : 2
Format                      : DTS
Format/Info                 : Digital Theater Systems
Mode                        : 16
Format settings, Endianness : Big
Codec ID                    : A_DTS
Duration                    : 43mn 42s
Bit rate mode               : Constant
Bit rate                    : 1 509 Kbps
Channel(s)                  : 6 channels
Channel positions           : Front: L C R, Side: L R, LFE
Sampling rate               : 48.0 KHz
Frame rate                  : 93.750 fps (512 spf)
Bit depth                   : 24 bits
Compression mode            : Lossy
Stream size                 : 472 MiB (11%)
Language                    : German
Default                     : Yes
Forced                      : No

Audio #2
ID                          : 3
Format                      : DTS
Format/Info                 : Digital Theater Systems
Mode                        : 16
Format settings, Endianness : Big
Codec ID                    : A_DTS
Duration                    : 43mn 42s
Bit rate mode               : Constant
Bit rate                    : 768 Kbps
Channel(s)                  : 6 channels
Channel positions           : Front: L C R, Side: L R, LFE
Sampling rate               : 48.0 KHz
Frame rate                  : 93.750 fps (512 spf)
Bit depth                   : 24 bits
Compression mode            : Lossy
Stream size                 : 240 MiB (5%)
Language                    : English
Default                     : No
Forced                      : No

Text
ID                          : 4
Format                      : UTF-8
Codec ID                    : S_TEXT/UTF8
Codec ID/Info               : UTF-8 Plain Text
Language                    : German
Default                     : Yes
Forced                      : No
Beschreibung:
Prison.Break.S01.-.S04.German.DL.DTS.BluRay.1080p.x264-x264Crew
Michael Scofield (Wentworth Miller) befindet sich in einer verzweifelten Situation: Sein Bruder Lincoln Burrows (Dominic Purcell) sitzt in einer Todeszelle. Er wurde wegen des Mordes am Bruder der amerikanischen Vize-Präsidentin verurteilt. Eine Überwachungskamera hat die Tat aufgenommen. Lincoln beteuert jedoch nach wie vor seine Unschuld.Niemand glaubt ihm - außer sein Bruder. Nachdem alle legalen Mittel ausgeschöpft sind, um die Hinrichtung zu verhindern, fasst Michael den tollkühnen Beschluss, Lincoln aus dem Gefängnis zu befreien. Als Ingenieur, der selbst am Umbau der Gefängnisanlagen beteiligt war, konzipiert er einen minutiös durchdachten Fluchtplan.
Direct Download Links | DDL-Links

Ähnliche Releases der Kategorie