Raped.by.Women.2014.UNCUT.German.BDRip.Xvid-NightCity

21. April 2016 von
Raped.by.Women.2014.UNCUT.German.BDRip.Xvid-NightCity Warez-World
Aufrufe: 38 Hits
Vote 4 Us
Release:
Raped by Women BD-RIP
Genre:
Drama
Laufzeit:
97 Min.
Größe:
944 MB
Passwort:
Warez-World.org
Sprachen:
Video Codec:
MPEG-4 DivX / Xvid
Audio Stream:
Stereo
Bewertung:
Video Vorschau:
Online Stream:
Hinweise:
Uncut
Info:
Zeige NFOVerberge NFO
General
Format                                   : AVI
Format/Info                              : Audio Video Interleave
File size                                : 944 MiB
Duration                                 : 1h 37mn
Overall bit rate                         : 1 349 Kbps
Writing application                      : Lavf54.63.104

Video
ID                                       : 0
Format                                   : xvid
Codec ID                                 : xvid
Duration                                 : 1h 37mn
Bit rate                                 : 1 209 Kbps
Width                                    : 720 pixels
Height                                   : 404 pixels
Display aspect ratio                     : 16:9
Frame rate                               : 24.000 fps
Bits/(Pixel*Frame)                       : 0.173
Stream size                              : 846 MiB (90%)

Audio
ID                                       : 1
Format                                   : MPEG Audio
Format version                           : Version 1
Format profile                           : Layer 3
Mode                                     : Joint stereo
Codec ID                                 : 55
Codec ID/Hint                            : MP3
Duration                                 : 1h 37mn
Bit rate mode                            : Constant
Bit rate                                 : 128 Kbps
Channel(s)                               : 2 channels
Sampling rate                            : 44.1 KHz
Compression mode                         : Lossy
Stream size                              : 89.6 MiB (9%)
Alignment                                : Aligned on interleaves
Interleave, duration                     : 26 ms (0.63 video frame)

Beschreibung:
Raped.by.Women.2014.UNCUT.German.BDRip.Xvid-NightCity
Früher haben wir die noble, tiefgründige und mysteriöse Existenz "Den Großen" genannt. Dann sind wir mit der Zeit gegangen, und unsere Gedanken und unser Bewusstsein haben sich verändert. Ein Animationsfilm über die Verwirrungen der modernen Welt. Mit einem zarten, handgezeichneten Stil und einer absurden Abfolge von Figuren, die in der Zeit gefangen sind, dekonstruiert Regisseur Atsushi Wada die Wirklichkeit.
Direct Download Links | DDL-Links

Ähnliche Releases der Kategorie