The.Revenant.Der.Rueckkehrer.2015.German.AC3LD.BDRiP.XViD-XDD

21. April 2016 von
The.Revenant.Der.Rueckkehrer.2015.German.AC3LD.BDRiP.XViD-XDD Warez-World
Aufrufe: 55 Hits
Vote 4 Us
Release:
The Revenant - Der Rückkehrer BD-RIP
Genre:
Drama
Laufzeit:
151 Min.
Größe:
2060 MB
Passwort:
Warez-World.org
Sprachen:
Video Codec:
MPEG-4 DivX / Xvid
Audio Stream:
Line
Bewertung:
Video Vorschau:
Online Stream:
Info:
Zeige NFOVerberge NFO
General
Format                                   : AVI
Format/Info                              : Audio Video Interleave
Format profile                           : OpenDML
File size                                : 2.01 GiB
Duration                                 : 2h 36mn
Overall bit rate                         : 1 842 Kbps
Writing application                      : VirtualDubMod 1.5.10.2 (build 2540/release)
Writing library                          : VirtualDubMod build 2540/release

Video
ID                                       : 0
Format                                   : MPEG-4 Visual
Format settings, BVOP                    : 1
Format settings, QPel                    : No
Format settings, GMC                     : No warppoints
Format settings, Matrix                  : Custom
Codec ID                                 : XVID
Codec ID/Hint                            : XviD
Duration                                 : 2h 36mn
Bit rate                                 : 1 605 Kbps
Width                                    : 720 pixels
Height                                   : 304 pixels
Display aspect ratio                     : 2.35:1
Frame rate                               : 23.976 fps
Color space                              : YUV
Chroma subsampling                       : 4:2:0
Bit depth                                : 8 bits
Scan type                                : Progressive
Compression mode                         : Lossy
Bits/(Pixel*Frame)                       : 0.306
Stream size                              : 1.75 GiB (87%)
Writing library                          : XviD 73

Audio
ID                                       : 1
Format                                   : AC-3
Format/Info                              : Audio Coding 3
Mode extension                           : CM (complete main)
Format settings, Endianness              : Big
Codec ID                                 : 2000
Duration                                 : 2h 36mn
Bit rate mode                            : Constant
Bit rate                                 : 224 Kbps
Channel(s)                               : 2 channels
Channel positions                        : Front: L R
Sampling rate                            : 48.0 KHz
Compression mode                         : Lossy
Stream size                              : 251 MiB (12%)
Alignment                                : Split accross interleaves
Interleave, duration                     : 42 ms (1.00 video frame)
Interleave, preload duration             : 500 ms

Beschreibung:
The.Revenant.Der.Rueckkehrer.2015.German.AC3LD.BDRiP.XViD-XDD
Bei einer Expedition tief in der amerikanischen Wildnis wird der legendäre Forscher und Abenteurer Hugh Glass brutal von einem Bären attackiert. Seine Jagdbegleiter, die überzeugt sind, dass er dem Tod geweiht ist, lassen ihn zurück. In seinem Überlebenskampf erleidet Glass unerträgliche Qualen und muss erleben, dass auch sein engster Vertrauter John Fitzgerald ihn verrät und im Stich lässt. Mit übermenschlichem Willen zu überleben und angetrieben von der Liebe zu seiner Familie kämpft Glass sich durch eine feindliche, unerbittliche Wildnis zurück ins Leben.
Direct Download Links | DDL-Links

Ähnliche Releases der Kategorie