Revenge.of.the.Ninja.-.Die.Rueckkehr.der.Ninja.1983.German.AC3.BDRip.XviD-Pate

21. April 2016 von
Revenge.of.the.Ninja.-.Die.Rueckkehr.der.Ninja.1983.German.AC3.BDRip.XviD-Pate Warez-World
Aufrufe: 23 Hits
Vote 4 Us
Release:
Die Rückkehr der Ninja BD-RIP
Genre:
Action
Laufzeit:
86 Min.
Größe:
1403 MB
Passwort:
Warez-World.org
Sprachen:
Video Codec:
MPEG-4 DivX / Xvid
Audio Stream:
Dolby Digital 5.1
Bewertung:
Video Vorschau:
Online Stream:
Info:
Zeige NFOVerberge NFO
General
Format                                   : AVI
Format/Info                              : Audio Video Interleave
File size                                : 1.37 GiB
Duration                                 : 1h 26mn
Overall bit rate                         : 2 271 Kbps
Writing application                      : VirtualDubMod 1.5.10.2 (build 2542/release)
Writing library                          : VirtualDubMod build 2542/release

Video
ID                                       : 0
Format                                   : MPEG-4 Visual
Format settings, BVOP                    : 2
Format settings, QPel                    : Yes
Format settings, GMC                     : No warppoints
Format settings, Matrix                  : Default (H.263)
Codec ID                                 : XVID
Codec ID/Hint                            : XviD
Duration                                 : 1h 26mn
Bit rate                                 : 1 813 Kbps
Width                                    : 720 pixels
Height                                   : 384 pixels
Display aspect ratio                     : 1.85:1
Frame rate                               : 25.000 fps
Color space                              : YUV
Chroma subsampling                       : 4:2:0
Bit depth                                : 8 bits
Scan type                                : Progressive
Compression mode                         : Lossy
Bits/(Pixel*Frame)                       : 0.262
Stream size                              : 1.09 GiB (80%)
Writing library                          : XviD 1.2.1 (UTC 2008-12-04)

Audio
ID                                       : 1
Format                                   : AC-3
Format/Info                              : Audio Coding 3
Mode extension                           : CM (complete main)
Format settings, Endianness              : Big
Codec ID                                 : 2000
Duration                                 : 1h 26mn
Bit rate mode                            : Constant
Bit rate                                 : 448 Kbps
Channel(s)                               : 2 channels
Channel positions                        : Front: L R
Sampling rate                            : 48.0 KHz
Compression mode                         : Lossy
Stream size                              : 277 MiB (20%)
Alignment                                : Split accross interleaves
Interleave, duration                     : 40 ms (1.00 video frame)
Interleave, preload duration             : 500 ms

Beschreibung:
Revenge.of.the.Ninja.-.Die.Rueckkehr.der.Ninja.1983.German.AC3.BDRip.XviD-Pate
Nachdem seine Familie in Japan durch Ninjas grausam ermodert wurde, macht sich der legendäre Ninja Cho mit seinem Sohn Kane nach Amerika auf, um ein neues Leben zu beginnen und seine Vergangenheit hinter sich zu lassen. Dort eröffnet er einen Puppenladen, ahnt jedoch nicht, dass sein Freund ihn betrügt und Heroin in den Puppen schmuggelt. Doch als Cho dies heraus findet, macht er sich bereit für den größten Kampf seines Lebens.
Direct Download Links | DDL-Links

Ähnliche Releases der Kategorie