Ride.Along.2.-.Next.Level.Miami.2016.German.AC3LD.BDRiP.XviD-FIJ

21. April 2016 von
Ride.Along.2.-.Next.Level.Miami.2016.German.AC3LD.BDRiP.XviD-FIJ Warez-World
Aufrufe: 30 Hits
Vote 4 Us
Release:
Ride Along 2 - Next Level Miami BD-RIP
Genre:
Comedy
Laufzeit:
101 Min.
Größe:
1404 MB
Passwort:
Warez-World.org
Sprachen:
Video Codec:
MPEG-4 DivX / Xvid
Audio Stream:
Line
Bewertung:
Video Vorschau:
Online Stream:
Info:
Zeige NFOVerberge NFO
General
Format                                   : AVI
Format/Info                              : Audio Video Interleave
File size                                : 1.37 GiB
Duration                                 : 1h 41mn
Overall bit rate                         : 1 934 Kbps
Writing application                      : VirtualDubModRus 1.5.10.2 (build 2540/release)
Writing library                          : VirtualDubMod build 2540/release

Video
ID                                       : 0
Format                                   : MPEG-4 Visual
Format settings, BVOP                    : No
Format settings, QPel                    : No
Format settings, GMC                     : No warppoints
Format settings, Matrix                  : Default (H.263)
Codec ID                                 : XVID
Codec ID/Hint                            : XviD
Duration                                 : 1h 41mn
Bit rate                                 : 1 701 Kbps
Width                                    : 720 pixels
Height                                   : 304 pixels
Display aspect ratio                     : 2.35:1
Frame rate                               : 23.976 fps
Color space                              : YUV
Chroma subsampling                       : 4:2:0
Bit depth                                : 8 bits
Scan type                                : Progressive
Compression mode                         : Lossy
Bits/(Pixel*Frame)                       : 0.324
Stream size                              : 1.21 GiB (88%)
Writing library                          : XviD 1.1.2 (UTC 2006-11-01)

Audio
ID                                       : 1
Format                                   : AC-3
Format/Info                              : Audio Coding 3
Mode extension                           : CM (complete main)
Format settings, Endianness              : Big
Codec ID                                 : 2000
Duration                                 : 1h 41mn
Bit rate mode                            : Constant
Bit rate                                 : 224 Kbps
Channel(s)                               : 2 channels
Channel positions                        : Front: L R
Sampling rate                            : 48.0 KHz
Compression mode                         : Lossy
Stream size                              : 163 MiB (12%)
Alignment                                : Split accross interleaves
Interleave, duration                     : 42 ms (1.00 video frame)
Interleave, preload duration             : 500 ms

Beschreibung:
Ride.Along.2.-.Next.Level.Miami.2016.German.AC3LD.BDRiP.XviD-FIJ
Bens Hochzeitstag steht vor der Tür, und doch macht er sich zusammen mit seinem zukünftigen Schwager James auf nach Miami, wo die beiden einen Drogendealer dingfest machen sollen, der Atlanta mit seinen Waren beliefert.
Direct Download Links | DDL-Links

Ähnliche Releases der Kategorie