Ride.Along.2.Next.Level.Miami.German.2016.AC3LD.BDRiP.XVID-OMS

21. April 2016 von
Ride.Along.2.Next.Level.Miami.German.2016.AC3LD.BDRiP.XVID-OMS Warez-World
Aufrufe: 17 Hits
Vote 4 Us
Release:
Ride Along 2 - Next Level Miami BD-RIP
Genre:
Comedy
Laufzeit:
97 Min.
Größe:
1461 MB
Passwort:
Warez-World.org
Sprachen:
Video Codec:
MPEG-4 DivX / Xvid
Audio Stream:
Line
Bewertung:
Video Vorschau:
Online Stream:
Info:
Zeige NFOVerberge NFO
General
Format                                   : AVI
Format/Info                              : Audio Video Interleave
Format profile                           : OpenDML
File size                                : 1.43 GiB
Duration                                 : 1h 41mn
Overall bit rate                         : 2 012 Kbps
Movie name                               : Ride.Along.2.Next.Level.Miami.German.2016.AC3LD.BDRiP.XVID-OMS
Genre                                    : Kom+â-Âdie
Recorded date                            : 2016
Writing application                      : Lavf57.2.100

Video
ID                                       : 0
Format                                   : MPEG-4 Visual
Format settings, BVOP                    : No
Format settings, QPel                    : No
Format settings, GMC                     : No warppoints
Format settings, Matrix                  : Default (H.263)
Codec ID                                 : DIVX
Codec ID/Info                            : Project Mayo
Codec ID/Hint                            : DivX 4
Duration                                 : 1h 41mn
Bit rate                                 : 1 776 Kbps
Width                                    : 720 pixels
Height                                   : 300 pixels
Display aspect ratio                     : 2.40:1
Frame rate                               : 24.000 fps
Color space                              : YUV
Chroma subsampling                       : 4:2:0
Bit depth                                : 8 bits
Scan type                                : Progressive
Compression mode                         : Lossy
Bits/(Pixel*Frame)                       : 0.343
Stream size                              : 1.26 GiB (88%)
Writing library                          : XviD 67

Audio
ID                                       : 1
Format                                   : AC-3
Format/Info                              : Audio Coding 3
Mode extension                           : CM (complete main)
Format settings, Endianness              : Big
Codec ID                                 : 2000
Duration                                 : 1h 41mn
Bit rate mode                            : Constant
Bit rate                                 : 224 Kbps
Channel(s)                               : 2 channels
Channel positions                        : Front: L R
Sampling rate                            : 48.0 KHz
Bit depth                                : 16 bits
Compression mode                         : Lossy
Stream size                              : 163 MiB (11%)
Alignment                                : Aligned on interleaves
Interleave, duration                     : 32 ms (0.77 video frame)
Language                                 : German

Beschreibung:
Ride.Along.2.Next.Level.Miami.German.2016.AC3LD.BDRiP.XVID-OMS
Bens Hochzeitstag steht vor der Tür, und doch macht er sich zusammen mit seinem zukünftigen Schwager James auf nach Miami, wo die beiden einen Drogendealer dingfest machen sollen, der Atlanta mit seinen Waren beliefert.
Direct Download Links | DDL-Links

Ähnliche Releases der Kategorie