Salon.Kitty.UNCUT.1976.German.AC3.HDRip.x264-FuN

6. September 2016 von
Salon.Kitty.UNCUT.1976.German.AC3.HDRip.x264-FuN Warez-World
Aufrufe: 47 Hits
Vote 4 Us
Release:
Salon Kitty BD-RIP
Genre:
Drama
Laufzeit:
104 Min.
Größe:
1818 MB
Passwort:
Warez-World.org
Sprachen:
Video Codec:
MPEG-4 H.264 / AVC
Audio Stream:
Dolby Digital 2.0
Bewertung:
Video Vorschau:
Online Stream:
Hinweise:
Uncut
Info:
Zeige NFOVerberge NFO
General
Format                                   : MPEG-4
Format profile                           : Base Media
Codec ID                                 : isom
File size                                : 1.78 GiB
Duration                                 : 2h 14mn
Overall bit rate                         : 1 895 Kbps
Encoded date                             : UTC 2016-08-15 06:18:57
Tagged date                              : UTC 2016-08-15 06:18:57

Video
ID                                       : 1
Format                                   : AVC
Format/Info                              : Advanced Video Codec
Format settings, CABAC                   : Yes
Format settings, ReFrames                : 4 frames
Codec ID                                 : avc1
Codec ID/Info                            : Advanced Video Coding
Duration                                 : 2h 13mn
Bit rate                                 : 1 450 Kbps
Maximum bit rate                         : 5 768 Kbps
Width                                    : 800 pixels
Height                                   : 432 pixels
Display aspect ratio                     : 1.85:1
Frame rate mode                          : Variable
Frame rate                               : 23.976 fps
Minimum frame rate                       : 23.810 fps
Maximum frame rate                       : 24.390 fps
Color space                              : YUV
Chroma subsampling                       : 4:2:0
Bit depth                                : 8 bits
Scan type                                : Progressive
Bits/(Pixel*Frame)                       : 0.175
Stream size                              : 1.35 GiB (76%)
Writing library                          : x264 core 142 r2479 dd79a61
Encoding settings                        : cabac=1 / ref=3 / deblock=1:0:0 / analyse=0x3:0x113 / me=hex / subme=7 / psy=1 / psy_rd=1.00:0.00 / mixed_ref=1 / me_range=16 / chroma_me=1 / trellis=1 / 8x8dct=1 / cqm=0 / deadzone=21,11 / fast_pskip=1 / chroma_qp_offset=-2 / threads=6 / lookahead_threads=1 / sliced_threads=0 / nr=0 / decimate=1 / interlaced=0 / bluray_compat=0 / constrained_intra=0 / bframes=3 / b_pyramid=2 / b_adapt=1 / b_bias=0 / direct=1 / weightb=1 / open_gop=0 / weightp=2 / keyint=240 / keyint_min=24 / scenecut=40 / intra_refresh=0 / rc_lookahead=40 / rc=abr / mbtree=1 / bitrate=1450 / ratetol=1.0 / qcomp=0.60 / qpmin=0 / qpmax=69 / qpstep=4 / ip_ratio=1.40 / aq=1:1.00
Encoded date                             : UTC 2036-02-06 06:28:16
Tagged date                              : UTC 2016-08-15 06:27:53
Color range                              : Limited
Color primaries                          : BT.709
Transfer characteristics                 : BT.709
Matrix coefficients                      : BT.709

Audio
ID                                       : 2
Format                                   : AC-3
Format/Info                              : Audio Coding 3
Mode extension                           : CM (complete main)
Format settings, Endianness              : Big
Codec ID                                 : ac-3
Duration                                 : 2h 14mn
Bit rate mode                            : Constant
Bit rate                                 : 448 Kbps
Channel(s)                               : 2 channels
Channel positions                        : Front: L R
Sampling rate                            : 48.0 KHz
Bit depth                                : 16 bits
Compression mode                         : Lossy
Stream size                              : 430 MiB (24%)
Language                                 : German
Encoded date                             : UTC 2016-08-15 06:26:13
Tagged date                              : UTC 2016-08-15 06:27:53

Beschreibung:
Salon.Kitty.UNCUT.1976.German.AC3.HDRip.x264-FuN
Berlin 1939: Die unschuldige Gründerzeitfassade des geheimnisumwitterten Charlottenburger Edelbordells umgibt eins der bestgehütetsten Geheimnisse der Nazizeit. Hinter den schweren Samtvorhängen des rauchgeschwängerten Salons von Kitty Kellermann verführen die heißesten Prostituierten des Reiches bei geschmackvoller Musik und reichlich Champagner mit laszivenPosen und Tänzen zahllose Diplomaten, Militärs, Politiker und andere einflussreiche Persönlichkeitender damaligen Zeit. SS-Offizier Wallenberg wird mit dem perfiden Plan, einige Damen seiner Wahl zum Spionage-Freudendienst abzustellen, beauftragt. Er lässt das gesamte Bordell verwanzen, so dass denAugen und Ohren der SS fortan kein Detail des animalischen Treibens mehr entgeht. Die gewonnenen Informationen sind allerdings so brisant, dass sie Wallenberg selbst bald zur Gefahr werden …
Direct Download Links | DDL-Links

Ähnliche Releases der Kategorie