San.Andreas.2015.German.Dubbed.DTS.7.1.DL.2160p.Ultra.HD.Blu-Ray.x265-NIMA4K

25. August 2016 von
San.Andreas.2015.German.Dubbed.DTS.7.1.DL.2160p.Ultra.HD.Blu-Ray.x265-NIMA4K Warez-World
Aufrufe: 65 Hits
Vote 4 Us
Release:
San Andreas
Genre:
Abenteuer, Action, Drama
Größe:
27338 MB
Passwort:
Warez-World.org
Sprachen:
Video Codec:
MKV
Audio Stream:
DTS
Bewertung:
Video Vorschau:
Online Stream:
Hinweise:
Auflösung:
3840x1598
Bitrate:
German DTS
Video Source:
2160p
Info:
Zeige NFOVerberge NFO
General
Unique ID                                : 196935215943038930527304586718906963678 (0x942857CB7FE1B9698A8365CC65DC56DE)
Complete name                            : San.Andreas.2015.German.Dubbed.DTS.7.1.DL.2160p.Ultra.HD.Blu-Ray.x265-NIMA4K.mkv
Format                                   : Matroska
Format version                           : Version 4 / Version 2
File size                                : 26.6 GiB
Duration                                 : 1h 54mn
Overall bit rate mode                    : Variable
Overall bit rate                         : 33.3 Mbps
Movie name                               : Pate
Encoded date                             : UTC 2016-05-24 21:43:18
Writing application                      : mkvmerge v9.1.0 ('Little Earthquakes') 64bit
Writing library                          : libebml v1.3.3 + libmatroska v1.4.4

Video
ID                                       : 1
Format                                   : HEVC
Format/Info                              : High Efficiency Video Coding
Format profile                           : Main@L5@Main
Codec ID                                 : V_MPEGH/ISO/HEVC
Duration                                 : 1h 54mn
Bit rate                                 : 24.8 Mbps
Width                                    : 3 840 pixels
Height                                   : 1 598 pixels
Display aspect ratio                     : 2.40:1
Frame rate mode                          : Constant
Frame rate                               : 23.976 (24000/1001) fps
Color space                              : YUV
Chroma subsampling                       : 4:2:0
Bit depth                                : 8 bits
Bits/(Pixel*Frame)                       : 0.169
Stream size                              : 19.8 GiB (75%)
Writing library                          : x265 1.9:[Windows][GCC 4.9.0][64 bit] 8bit
Encoding settings                        : wpp / ctu=64 / min-cu-size=8 / max-tu-size=32 / tu-intra-depth=1 / tu-inter-depth=1 / me=1 / subme=2 / merange=57 / no-rect / no-amp / max-merge=2 / temporal-mvp / no-early-skip / rdpenalty=0 / no-tskip / no-tskip-fast / strong-intra-smoothing / no-lossless / no-cu-lossless / no-constrained-intra / no-fast-intra / open-gop / no-temporal-layers / interlace=0 / keyint=240 / min-keyint=24 / scenecut=40 / rc-lookahead=20 / lookahead-slices=8 / bframes=4 / bframe-bias=0 / b-adapt=2 / ref=3 / limit-refs=3 / no-limit-modes / weightp / no-weightb / aq-mode=1 / qg-size=32 / aq-strength=1.00 / cbqpoffs=0 / crqpoffs=0 / rd=3 / psy-rd=2.00 / rdoq-level=0 / psy-rdoq=0.00 / signhide / deblock / sao / no-sao-non-deblock / b-pyramid / cutree / no-intra-refresh / rc=abr / bitrate=25000 / qcomp=0.60 / qpmin=0 / qpmax=51 / qpstep=4 / ipratio=1.40 / pbratio=1.30
Default                                  : Yes
Forced                                   : No
Color range                              : Limited
Color primaries                          : BT.709
Transfer characteristics                 : BT.709
Matrix coefficients                      : BT.709

Audio #1
ID                                       : 2
Format                                   : DTS
Format/Info                              : Digital Theater Systems
Mode                                     : 16
Format settings, Endianness              : Big
Codec ID                                 : A_DTS
Duration                                 : 1h 54mn
Bit rate mode                            : Constant
Bit rate                                 : 1 509 Kbps
Channel(s)                               : 6 channels
Channel positions                        : Front: L C R, Side: L R, LFE
Sampling rate                            : 48.0 KHz
Frame rate                               : 93.750 fps (512 spf)
Bit depth                                : 24 bits
Compression mode                         : Lossy
Delay relative to video                  : -82ms
Stream size                              : 1.21 GiB (5%)
Title                                    : DTS NIMA4K
Language                                 : German
Default                                  : Yes
Forced                                   : Yes

Audio #2
ID                                       : 3
Format                                   : DTS
Format/Info                              : Digital Theater Systems
Mode                                     : 16
Format settings, Endianness              : Big
Codec ID                                 : A_DTS
Duration                                 : 1h 54mn
Bit rate mode                            : Constant
Bit rate                                 : 1 509 Kbps
Channel(s)                               : 6 channels
Channel positions                        : Front: L C R, Side: L R, LFE
Sampling rate                            : 48.0 KHz
Frame rate                               : 93.750 fps (512 spf)
Bit depth                                : 24 bits
Compression mode                         : Lossy
Delay relative to video                  : -82ms
Stream size                              : 1.21 GiB (5%)
Title                                    : DTS NIMA4K
Language                                 : English
Default                                  : No
Forced                                   : No

Audio #3
ID                                       : 4
Format                                   : Atmos / TrueHD
Codec ID                                 : A_TRUEHD
Duration                                 : 1h 54mn
Bit rate mode                            : Variable
Bit rate                                 : 5 306 Kbps
Maximum bit rate                         : 8 757 Kbps
Channel(s)                               : Object Based / 8 channels
Channel positions                        : Object Based / Front: L C R, Side: L R, Back: L R, LFE
Sampling rate                            :  / 48.0 KHz
Frame rate                               : 1 200.000 fps (40 spf)
Compression mode                         : Lossless
Delay relative to video                  : -83ms
Stream size                              : 4.24 GiB (16%)
Title                                    : Surround 7.1 NIMA4K
Language                                 : German
Default                                  : No
Forced                                   : No

Text #1
ID                                       : 5
Format                                   : PGS
Muxing mode                              : zlib
Codec ID                                 : S_HDMV/PGS
Codec ID/Info                            : Picture based subtitle format used on BDs/HD-DVDs
Duration                                 : 1h 52mn
Bit rate                                 : 30.4 Kbps
Count of elements                        : 3416
Stream size                              : 24.5 MiB (0%)
Title                                    : NIMA4K
Language                                 : English
Default                                  : Yes
Forced                                   : No

Text #2
ID                                       : 6
Format                                   : PGS
Muxing mode                              : zlib
Codec ID                                 : S_HDMV/PGS
Codec ID/Info                            : Picture based subtitle format used on BDs/HD-DVDs
Duration                                 : 1h 53mn
Bit rate                                 : 33.5 Kbps
Count of elements                        : 3422
Stream size                              : 27.1 MiB (0%)
Title                                    : NIMA4K
Language                                 : German
Default                                  : No
Forced                                   : No

Text #3
ID                                       : 7
Format                                   : PGS
Muxing mode                              : zlib
Codec ID                                 : S_HDMV/PGS
Codec ID/Info                            : Picture based subtitle format used on BDs/HD-DVDs
Duration                                 : 1h 53mn
Bit rate                                 : 150 bps
Count of elements                        : 16
Stream size                              : 125 KiB (0%)
Title                                    : NIMA4K
Language                                 : German
Default                                  : No
Forced                                   : No

Menu
00:00:00.000                             : en:Chapter 01
00:09:29.944                             : en:Chapter 02
00:18:47.209                             : en:Chapter 03
00:30:10.058                             : en:Chapter 04
00:40:08.823                             : en:Chapter 05
00:50:18.056                             : en:Chapter 06
00:59:44.455                             : en:Chapter 07
01:11:27.324                             : en:Chapter 08
01:19:43.570                             : en:Chapter 09
01:30:40.768                             : en:Chapter 10
01:39:56.490                             : en:Chapter 11
01:47:10.882                             : en:Chapter 12


Beschreibung:
San.Andreas.2015.German.Dubbed.DTS.7.1.DL.2160p.Ultra.HD.Blu-Ray.x265-NIMA4K
Als sich die berüchtigte San-Andreas-Verwerfung verschiebt, kommt es in Kalifornien zu einem Erdbeben der Stärke 9. In dieser Situation versuchen sich der Helikopter-Rettungspilot Ray und seine Noch-Ehefrau Emma gemeinsam von Los Angeles nach San Francisco durchzuschlagen, um ihrer einzigen Tochter beizustehen. Doch ihre gefährliche Reise gen Norden ist nur der Anfang: Denn als sie annehmen können, das Schlimmste überstanden zu haben, geht es erst richtig los...
Resolution.......: 3840x1598 FPS..............: 23.976 Source...........: Ultra HD Blu-Ray Subs.............: German, English Audio............: 1: Deutsch DTS 5.1 (THX @ Pate) 2: English DTS 5.1 (THX @ Pate) 3: Deutsch Atmos TrueHD 7.1
Direct Download Links | DDL-Links

Ähnliche Releases der Kategorie