Sausage.Party.2016.HDCam.HQ-Mic.Xvid.AC3.UnKnOwN.Hive-CM8

19. August 2016 von
Sausage.Party.2016.HDCam.HQ-Mic.Xvid.AC3.UnKnOwN.Hive-CM8 Warez-World
Aufrufe: 319 Hits
Vote 4 Us
Release:
Sausage Party CAM
Genre:
Animation
Laufzeit:
83 Min.
Größe:
1345 MB
Passwort:
Warez-World.org
Sprachen:
Video Codec:
MPEG-4 DivX / Xvid
Audio Stream:
Dolby Digital 5.1
Bewertung:
Video Vorschau:
Online Stream:
Info:
Zeige NFOVerberge NFO
Sausage.Party.2016.HDCam.HQ-Mic.Xvid.AC3.UnKnOwN.Hive-CM8

Thx Hive

CM8 Doing It Right The First Time

Sources:

Video: OWN 1080P HDCAM MaTiNE
Audio: OWN English HQ Mic MaTiNE
thx

Notes:
Have the pleasure to work with 2 Groups we know best MaTiNe and UnKnOwN
and we made a First exclusive UnKnOwN-Hive-CM8 Comborelease for the public.
Our chosen VIPS had this a week earlier, maybe you like to be one of them too!
Many more are coming!!!
Now we decided to free it, so that everyone can enjoy a Quality release too.

Encode:
Cam was very nice needed fixing ar and perspective
brightness,contrast and sharpness were already perfect nothing done here.
Audio was already nice,almost sounds like line, tweaked and lipsynced to video.
got very nice
enjoy

Video: 720x256 @bitrate 2000 2pass
Audio: English HQ Mic AC3 2.0
Sample: yes included

General
Complete name : Sausage.Party.2016.HDCam.HQ-Mic.Xvid.AC3.UnKnOwN.Hive-CM8.avi
Format : AVI
Format/Info : Audio Video Interleave
File size : 1.30 GiB
Duration : 1h 21mn
Overall bit rate : 2 267 Kbps
Writing application : Nandub v1.0rc2
Writing library : Nandub build 1853/release

Video
ID : 0
Format : MPEG-4 Visual
Format profile : Advanced Simple@L5
Format settings, BVOP : 2
Format settings, QPel : Yes
Format settings, GMC : No warppoints
Format settings, Matrix : Default (H.263)
Muxing mode : Packed bitstream
Codec ID : XVID
Codec ID/Hint : XviD
Duration : 1h 21mn
Bit rate : 1 999 Kbps
Width : 720 pixels
Height : 256 pixels
Display aspect ratio : 2.813
Frame rate : 29.970 fps
Color space : YUV
Chroma subsampling : 4:2:0
Bit depth : 8 bits
Scan type : Progressive
Compression mode : Lossy
Bits/(Pixel*Frame) : 0.362
Stream size : 1.14 GiB (88%)
Writing library : XviD 1.2.1 (UTC 2008-12-04)

Audio
ID : 1
Format : AC-3
Format/Info : Audio Coding 3
Mode extension : CM (complete main)
Format settings, Endianness : Big
Codec ID : 2000
Duration : 1h 21mn
Bit rate mode : Constant
Bit rate : 256 Kbps
Channel(s) : 2 channels
Channel positions : Front: L R
Sampling rate : 48.0 KHz
Bit depth : 16 bits
Compression mode : Lossy
Stream size : 150 MiB (11%)
Alignment : Split accross interleaves
Interleave, duration : 33 ms (1.00 video frame)
Interleave, preload duration : 500 ms
Beschreibung:
Sausage.Party.2016.HDCam.HQ-Mic.Xvid.AC3.UnKnOwN.Hive-CM8
Für Lebensmittel im Supermarkt gibt es nur die eine wahre Bestimmung im Leben: In einen Einkaufswagen gelegt zu werden und zu einem Menschen mit nach Hause zu dürfen, um dort angekommen in eine Art himmlisches Paradies zu kommen! Wurst Frank (Stimme im Original: Seth Rogen) wünscht sich nichts sehnlicher, als dort endlich in das sexy Hotdog-Brötchen Brenda (Kristen Wiig) gesteckt zu werden. Ein Glas Honigsenf, das in den Laden zurückgegeben wurde, versucht die anderen Produkte vor dem wirklichen, grausamen Schicksal zu warnen, das bei den Menschen wartet, aber weder Frank und Brenda noch deren leckere Kollegen wie Sammy Bagel Jr. (Edward Norton) oder Vash (David Krumholtz) wollen dem Horrorszenario Glauben schenken – bis sie schon bald in der Küche einer Einkäuferin schließlich am eigenen Leib erleben, dass die gefräßigen Riesen selbst vor kleinen Karottenkindern keinen Halt machen…
Direct Download Links | DDL-Links

Ähnliche Releases der Kategorie