Sex.Couch.10.Regeln.fuers.Fremdgehen.German.2013.AC3.BDRip.x264-MOViEiT

6. September 2016 von
Sex.Couch.10.Regeln.fuers.Fremdgehen.German.2013.AC3.BDRip.x264-MOViEiT Warez-World
Aufrufe: 49 Hits
Vote 4 Us
Release:
Sex Couch - 10 Regeln fürs Fremdgehen BD-RIP
Genre:
Comedy
Laufzeit:
95 Min.
Größe:
1202 MB
Passwort:
Warez-World.org
Sprachen:
Video Codec:
MPEG-4 H.264 / AVC
Audio Stream:
Dolby Digital 5.1
Bewertung:
Video Vorschau:
Online Stream:
Info:
Zeige NFOVerberge NFO
General
Format                                   : Matroska
Format version                           : Version 2
File size                                : 1.16 GiB
Duration                                 : 1h 34mn
Overall bit rate                         : 1 754 Kbps
Writing application                      : mkvmerge v4.1.1 ('Bouncin' Back') built on Jul  3 2010 22:54:08
Writing library                          : libebml v1.0.0 + libmatroska v1.0

Video
ID                                       : 1
Format                                   : AVC
Format/Info                              : Advanced Video Codec
Format settings, CABAC                   : Yes
Format settings, ReFrames                : 5 frames
Codec ID                                 : V_MPEG4/ISO/AVC
Duration                                 : 1h 34mn
Bit rate                                 : 1 336 Kbps
Width                                    : 720 pixels
Height                                   : 404 pixels
Display aspect ratio                     : 16:9
Frame rate mode                          : Constant
Frame rate                               : 23.976 fps
Color space                              : YUV
Chroma subsampling                       : 4:2:0
Bit depth                                : 8 bits
Scan type                                : Progressive
Bits/(Pixel*Frame)                       : 0.191
Stream size                              : 904 MiB (76%)
Writing library                          : x264 core 148 r2705 3f5ed56
Encoding settings                        : cabac=1 / ref=5 / deblock=1:-2:-2 / analyse=0x3:0x133 / me=umh / subme=7 / psy=1 / psy_rd=1.00:0.15 / mixed_ref=1 / me_range=16 / chroma_me=1 / trellis=1 / 8x8dct=1 / cqm=0 / deadzone=21,11 / fast_pskip=0 / chroma_qp_offset=-3 / threads=13 / lookahead_threads=2 / sliced_threads=0 / nr=0 / decimate=1 / interlaced=0 / bluray_compat=0 / constrained_intra=0 / bframes=3 / b_pyramid=2 / b_adapt=1 / b_bias=0 / direct=3 / weightb=1 / open_gop=0 / weightp=2 / keyint=240 / keyint_min=23 / scenecut=40 / intra_refresh=0 / rc_lookahead=50 / rc=crf / mbtree=1 / crf=19.0 / qcomp=0.60 / qpmin=10 / qpmax=51 / qpstep=4 / vbv_maxrate=17500 / vbv_bufsize=17500 / crf_max=0.0 / nal_hrd=none / filler=0 / ip_ratio=1.40 / aq=1:1.00
Language                                 : English
Default                                  : Yes
Forced                                   : No

Audio
ID                                       : 2
Format                                   : AC-3
Format/Info                              : Audio Coding 3
Mode extension                           : CM (complete main)
Format settings, Endianness              : Big
Codec ID                                 : A_AC3
Duration                                 : 1h 34mn
Bit rate mode                            : Constant
Bit rate                                 : 384 Kbps
Channel(s)                               : 6 channels
Channel positions                        : Front: L C R, Side: L R, LFE
Sampling rate                            : 48.0 KHz
Compression mode                         : Lossy
Stream size                              : 260 MiB (22%)
Language                                 : German
Default                                  : Yes
Forced                                   : No

Beschreibung:
Sex.Couch.10.Regeln.fuers.Fremdgehen.German.2013.AC3.BDRip.x264-MOViEiT
Vince und Cameron sind seit Jahren glücklich verheiratet, während ihre Freunde Ben und seine Kate das erst noch vorhaben. Nicht wenig zum Glück von Vince und Cameron trägt angeblich der Umstand bei, dass sie eine offene Beziehung führen und schlafen dürfen, mit fast wem sie wollen. Ben und Kate finden das zunächst verstörend, dann aber interessant, und beschließen, es auch mal zu versuchen. Ein gemeinsamer Ausflug in die Hamptons bietet dazu reiche Gelegenheit und führt zu komplexen Verwerfungen. Jede Menge Bad-Taste-Klamauk in einer sich frivol gebenden, in Wahrheit aber recht zugeknöpften Sex-Komödie.
Direct Download Links | DDL-Links

Ähnliche Releases der Kategorie