South.Park.S19.COMPLETE.German.Dubbed.DL.AC3.1080p.WEB-DL.h264-NERDS

23. August 2016 von
South.Park.S19.COMPLETE.German.Dubbed.DL.AC3.1080p.WEB-DL.h264-NERDS Warez-World
Aufrufe: 329 Hits
Vote 4 Us
Release:
South Park Staffel 19 WEB-DL
Genre:
Cartoon
Laufzeit:
220 Min.
Größe:
8530 MB
Passwort:
Warez-World.org
Sprachen:
Video Codec:
MPEG-4 H.264 / AVC
Audio Stream:
Stereo
Bewertung:
Video Vorschau:
Online Stream:
Info:
Zeige NFOVerberge NFO
General
Complete name                            : /home/elmo/rtorrent/downloads/South.Park.S19.COMPLETE.German.Dubbed.DL.AC3.1080p.WEB-DL.h264-NERDS/South.Park.S19E10.PC.Principal.Tag.der.Abrechnung.German.Dubbed.DL.AC3.1080p.WEB-DL.h264-NERDS.mkv
Format                                   : Matroska
Format version                           : Version 2
File size                                : 849 MiB
Duration                                 : 22mn 4s
Overall bit rate                         : 5 377 Kbps
Movie name                               : South Park S19E10 PC Principal Tag der Abrechnung
Encoded date                             : UTC 2016-04-10 20:50:36
Writing application                      : mkvmerge v3.4.0 ('Rapunzel') gebaut am May 15 2010 09:38:20
Writing library                          : libebml v0.8.0 + libmatroska v0.9.0
Video
ID                                       : 1
Format                                   : AVC
Format/Info                              : Advanced Video Codec
Format profile                           : High@L4.0
Format settings, CABAC                   : Yes
Format settings, ReFrames                : 4 frames
Codec ID                                 : V_MPEG4/ISO/AVC
Duration                                 : 22mn 4s
Bit rate                                 : 4 886 Kbps
Width                                    : 1 916 pixels
Height                                   : 1 076 pixels
Display aspect ratio                     : 16:9
Frame rate mode                          : Constant
Frame rate                               : 23.976 fps
Color space                              : YUV
Chroma subsampling                       : 4:2:0
Bit depth                                : 8 bits
Scan type                                : Progressive
Bits/(Pixel*Frame)                       : 0.099
Stream size                              : 771 MiB (91%)
Title                                    : South Park S19E10 PC Principal Tag der Abrechnung
Language                                 : German
Default                                  : Yes
Forced                                   : No
Color primaries                          : BT.709
Transfer characteristics                 : BT.709
Matrix coefficients                      : BT.709
Audio #1
ID                                       : 2
Format                                   : AC-3
Format/Info                              : Audio Coding 3
Mode extension                           : CM (complete main)
Format settings, Endianness              : Big
Codec ID                                 : A_AC3
Duration                                 : 22mn 4s
Bit rate mode                            : Constant
Bit rate                                 : 192 Kbps
Channel(s)                               : 2 channels
Channel positions                        : Front: L R
Sampling rate                            : 48.0 KHz
Bit depth                                : 16 bits
Compression mode                         : Lossy
Stream size                              : 30.3 MiB (4%)
Title                                    : AC3 2.0 @ 192 kbit/s
Language                                 : German
Default                                  : Yes
Forced                                   : No
Audio #2
ID                                       : 3
Format                                   : AC-3
Format/Info                              : Audio Coding 3
Mode extension                           : CM (complete main)
Format settings, Endianness              : Big
Codec ID                                 : A_AC3
Duration                                 : 22mn 4s
Bit rate mode                            : Constant
Bit rate                                 : 192 Kbps
Channel(s)                               : 2 channels
Channel positions                        : Front: L R
Sampling rate                            : 48.0 KHz
Bit depth                                : 16 bits
Compression mode                         : Lossy
Stream size                              : 30.3 MiB (4%)
Title                                    : AC3 2.0 @ 192 kbit/s
Language                                 : English
Default                                  : No
Forced                                   : No
Beschreibung:
South.Park.S19.COMPLETE.German.Dubbed.DL.AC3.1080p.WEB-DL.h264-NERDS
Stan, Kyle, Cartman und Kenny sind vier Grundschüler, die in South Park, Colorado aufwachsen. Gemeinsam hadern sie mit den alltäglichen Problemen des Erwachsenwerdens, womit sich die Ähnlichkeit mit anderen Kindern aber auch schon erschöpft. Ihr guter Freund, der schwarze Koch "Chef" ist immer gerne bereit, als guten Rat ein schmutziges Lied zum Besten zu geben. Und ihr Lehrer, Mr. Garrison, trägt immer die Handpuppe Mr. Zylinder mit sich herum und zeigt ein ums andere Mal schizophrene Verhaltensauffälligkeiten.
Direct Download Links | DDL-Links

Ähnliche Releases der Kategorie