Star.Trek.8.Der.erste.Kontakt.1996.German.AC3D.5.1 .BDRip.XVID-LameMIX

8. November 2016 von
Star.Trek.8.Der.erste.Kontakt.1996.German.AC3D.5.1 .BDRip.XVID-LameMIX Warez-World
Aufrufe: 37 Hits
Vote 4 Us
Release:
Star Trek: Der erste Kontakt BD-RIP
Genre:
Action
Laufzeit:
111 Min.
Größe:
1382 MB
Passwort:
Warez-World.org
Sprachen:
Video Codec:
MPEG-4 DivX / Xvid
Audio Stream:
Dolby Digital 5.1
Bewertung:
Video Vorschau:
Online Stream:
Info:
Zeige NFOVerberge NFO
RESOLUTiON   : 720 x 404
Video     .. : avi @ 1094 kbps | 23.976 fps (Source @ OWN)
Audio 1   .. : German AC3 5.1 @ 640 Kbps

Die neue AC3 5.1 Tonspur wurde von uns (LameMIX) aus Englisch DTS-HD 5.1 und Deutsch AC3 5.1 erstellt (Source war die Deutsche (RETAIL) und die Englische Bluray). Dialoge stammen aus der Deutschen AC3 und der Rest vom Englischen DTS-HD-Ton. Des Weiteren wurden Lautst rke Anpassungen in den einzelnen Kan len vorgenommen. Die zus tzlichen Side Rear Spuren im 7.1 Mix wurden selbst kreiert aus den englischen und deutschen Rear Spuren.

General
Format : AVI
Format/Info : Audio Video Interleave
File size : 1.35 GiB
Duration : 1h 50mn
Overall bit rate : 1 745 Kbps

Video
ID : 0
Format : MPEG-4 Visual
Format profile : Advanced Simple@L5
Format settings, BVOP : 2
Format settings, QPel : No
Format settings, GMC : No warppoints
Format settings, Matrix : Default (MPEG)
Codec ID : XVID
Codec ID/Hint : XviD
Duration : 1h 50mn
Bit rate : 1 094 Kbps
Width : 720 pixels
Height : 404 pixels
Display aspect ratio : 16:9
Frame rate : 23.976 (23976/1000) fps
Color space : YUV
Chroma subsampling : 4:2:0
Bit depth : 8 bits
Scan type : Progressive
Compression mode : Lossy
Bits/(Pixel*Frame) : 0.157
Stream size : 867 MiB (63%)
Writing library : XviD 64

Audio
ID : 1
Format : AC-3
Format/Info : Audio Coding 3
Mode extension : CM (complete main)
Format settings, Endianness : Big
Codec ID : 2000
Duration : 1h 50mn
Bit rate mode : Constant
Bit rate : 640 Kbps
Channel(s) : 6 channels
Channel positions : Front: L C R, Side: L R, LFE
Sampling rate : 48.0 KHz
Frame rate : 31.250 fps (1536 spf)
Compression mode : Lossy
Stream size : 507 MiB (37%)
Alignment : Aligned on interleaves
Interleave, duration : 32 ms (0.77 video frame)
Beschreibung:
Star.Trek.8.Der.erste.Kontakt.1996.German.AC3D.5.1 .BDRip.XVID-LameMIX
Nach einem Angriff der Borg auf die Raumstation Deep Space 12 verwickelt Captain Jean-Luc Picard - trotz gegenteiliger Befehle aus dem Hauptquartier der Föderation - die Enterprise E in eine gigantische Schlacht mit den verfeindeten Außerirdischen. Kurz vor der Niederlage der Alien-Flotte gelingt es einem kleinen Raumgleiter, durch eine Zeitspalte zurück ins Jahr 2063 a.D. zu fliegen. Die Borg landen in Arizona und starten von dort aus einen großangelegten Versuch, den Lauf der Weltgeschichte dramatisch zu verändern. In modernisiertem Gewand präsentiert sich der achte Star Trek-Spielfilm. Die Charakteristika der 30-jährigen Kult-Serie - optimistische Perspektive, viel Humor und eine humanistische Grundhaltung - wurden beibehalten, hinzu kamen jedoch spektakuläre Horrorelemente, ein Hauch von Erotik und vor allem die zeitgemäßen Special Effects aus dem Hause ILM. Auch ohne Spock und Captain Kirk erweist sich dieses routiniert inszenierte Zeitreise-Abenteuer auf der Höhe des SF-Genres.
Direct Download Links | DDL-Links

Ähnliche Releases der Kategorie