Star.Trek.Beyond.2016.GERMAN.AC3.MiC.DUBBED.TS.x264-GOT

31. Juli 2016 von
Star.Trek.Beyond.2016.GERMAN.AC3.MiC.DUBBED.TS.x264-GOT Warez-World
Aufrufe: 52 Hits
Vote 4 Us
Release:
Star Trek Beyond TS
Genre:
Thriller
Laufzeit:
123 Min.
Größe:
1825 MB
Passwort:
Warez-World.org
Sprachen:
Video Codec:
MPEG-4 H.264 / AVC
Audio Stream:
Mic
Bewertung:
Video Vorschau:
Online Stream:
Info:
Zeige NFOVerberge NFO
General
Format                                   : Matroska
Format version                           : Version 4 / Version 2
File size                                : 1.78 GiB
Duration                                 : 1h 42mn
Overall bit rate                         : 2 491 Kbps
Encoded date                             : UTC 2016-07-24 22:35:15
Writing application                      : Lavf57.40.101
Writing library                          : Lavf57.40.101

Video
ID                                       : 1
Format                                   : AVC
Format/Info                              : Advanced Video Codec
Format settings, CABAC                   : Yes
Format settings, ReFrames                : 2 frames
Codec ID                                 : V_MPEG4/ISO/AVC
Duration                                 : 1h 42mn
Bit rate                                 : 2 300 Kbps
Width                                    : 720 pixels
Height                                   : 304 pixels
Display aspect ratio                     : 2.35:1
Frame rate mode                          : Constant
Frame rate                               : 29.970 fps
Color space                              : YUV
Chroma subsampling                       : 4:2:0
Bit depth                                : 8 bits
Scan type                                : Progressive
Bits/(Pixel*Frame)                       : 0.351
Stream size                              : 1.61 GiB (90%)
Writing library                          : x264 core 148 r2643
Encoding settings                        : cabac=1 / ref=2 / deblock=1:0:0 / analyse=0x1:0x131 / me=hex / subme=7 / psy=1 / psy_rd=1.00:0.00 / mixed_ref=0 / me_range=16 / chroma_me=1 / trellis=1 / 8x8dct=0 / cqm=0 / deadzone=21,11 / fast_pskip=1 / chroma_qp_offset=-2 / threads=9 / lookahead_threads=1 / sliced_threads=0 / nr=0 / decimate=1 / interlaced=0 / bluray_compat=0 / constrained_intra=0 / bframes=3 / b_pyramid=0 / b_adapt=1 / b_bias=0 / direct=0 / weightb=1 / open_gop=0 / weightp=2 / keyint=299 / keyint_min=29 / scenecut=40 / intra_refresh=0 / rc_lookahead=40 / rc=abr / mbtree=1 / bitrate=2300 / ratetol=1.0 / qcomp=0.60 / qpmin=10 / qpmax=69 / qpstep=4 / vbv_maxrate=2550 / vbv_bufsize=24000 / nal_hrd=none / filler=0 / ip_ratio=1.40 / aq=3:1.00
Default                                  : Yes
Forced                                   : No
DURATION                                 : 01:42:25.272000000

Audio
ID                                       : 2
Format                                   : AC-3
Format/Info                              : Audio Coding 3
Mode extension                           : CM (complete main)
Format settings, Endianness              : Big
Codec ID                                 : A_AC3
Duration                                 : 1h 42mn
Bit rate mode                            : Constant
Bit rate                                 : 192 Kbps
Channel(s)                               : 2 channels
Channel positions                        : Front: L R
Sampling rate                            : 48.0 KHz
Compression mode                         : Lossy
Delay relative to video                  : 31ms
Stream size                              : 141 MiB (8%)
Default                                  : Yes
Forced                                   : No
DURATION                                 : 01:42:25.280000000

Beschreibung:
Star.Trek.Beyond.2016.GERMAN.AC3.MiC.DUBBED.TS.x264-GOT
Auf ihrer Forschungsmission gerät die Enterprise in einen gnadenlosen Hinterhalt. Unter Dauerbeschuss kann die Crew um Captain Kirk nur in letzter Sekunde auf fremdem Terrain notlanden. Doch statt in Sicherheit befindet sie sich plötzlich zwischen den Fronten eines scheinbar ausweglosen Konflikts. Getrennt voneinander und ohne Kontakt zur Außenwelt ziehen Kirk und sein Team in den Kampf gegen einen mysteriösen und übermächtigen Feind.
Direct Download Links | DDL-Links

Ähnliche Releases der Kategorie