Star.Trek.Beyond.2016.GERMAN.AC3.MiC.DUBBED.TS.XViD-GOT

31. Juli 2016 von
Star.Trek.Beyond.2016.GERMAN.AC3.MiC.DUBBED.TS.XViD-GOT Warez-World
Aufrufe: 90 Hits
Vote 4 Us
Release:
Star Trek Beyond TS
Genre:
Thriller
Laufzeit:
123 Min.
Größe:
1820 MB
Passwort:
Warez-World.org
Sprachen:
Video Codec:
MPEG-4 DivX / Xvid
Audio Stream:
Mic
Bewertung:
Video Vorschau:
Online Stream:
Info:
Zeige NFOVerberge NFO
General
Format                                   : AVI
Format/Info                              : Audio Video Interleave
Format profile                           : OpenDML
File size                                : 1.78 GiB
Duration                                 : 1h 42mn
Overall bit rate                         : 2 484 Kbps
Writing application                      : Lavf57.40.101

Video
ID                                       : 0
Format                                   : MPEG-4 Visual
Format settings, BVOP                    : No
Format settings, QPel                    : No
Format settings, GMC                     : No warppoints
Format settings, Matrix                  : Default (H.263)
Codec ID                                 : XVID
Codec ID/Hint                            : XviD
Duration                                 : 1h 42mn
Bit rate                                 : 2 279 Kbps
Width                                    : 720 pixels
Height                                   : 304 pixels
Display aspect ratio                     : 2.35:1
Frame rate                               : 29.970 fps
Color space                              : YUV
Chroma subsampling                       : 4:2:0
Bit depth                                : 8 bits
Scan type                                : Progressive
Compression mode                         : Lossy
Bits/(Pixel*Frame)                       : 0.347
Stream size                              : 1.63 GiB (92%)
Writing library                          : XviD 67

Audio
ID                                       : 1
Format                                   : AC-3
Format/Info                              : Audio Coding 3
Mode extension                           : CM (complete main)
Format settings, Endianness              : Big
Codec ID                                 : 2000
Duration                                 : 1h 42mn
Bit rate mode                            : Constant
Bit rate                                 : 192 Kbps
Channel(s)                               : 2 channels
Channel positions                        : Front: L R
Sampling rate                            : 48.0 KHz
Bit depth                                : 16 bits
Compression mode                         : Lossy
Stream size                              : 141 MiB (8%)
Alignment                                : Aligned on interleaves
Interleave, duration                     : 32 ms (0.96 video frame)
Interleave, preload duration             : 64 ms

Beschreibung:
Star.Trek.Beyond.2016.GERMAN.AC3.MiC.DUBBED.TS.XViD-GOT
Auf ihrer Forschungsmission gerät die Enterprise in einen gnadenlosen Hinterhalt. Unter Dauerbeschuss kann die Crew um Captain Kirk nur in letzter Sekunde auf fremdem Terrain notlanden. Doch statt in Sicherheit befindet sie sich plötzlich zwischen den Fronten eines scheinbar ausweglosen Konflikts. Getrennt voneinander und ohne Kontakt zur Außenwelt ziehen Kirk und sein Team in den Kampf gegen einen mysteriösen und übermächtigen Feind.
Direct Download Links | DDL-Links

Ähnliche Releases der Kategorie