Star.Wars.Episode.VII.Das.Erwachen.der.Macht.2015.German.AC3.5.1.BDRip.XviD-iNTERFilm

21. April 2016 von
Star.Wars.Episode.VII.Das.Erwachen.der.Macht.2015.German.AC3.5.1.BDRip.XviD-iNTERFilm Warez-World
Aufrufe: 22 Hits
Vote 4 Us
Release:
Star Wars: Episode VII - Das Erwachen der Macht BD-RIP
Genre:
Action
Laufzeit:
135 Min.
Größe:
1991 MB
Passwort:
Warez-World.org
Sprachen:
Video Codec:
MPEG-4 DivX / Xvid
Audio Stream:
Stereo
Bewertung:
Video Vorschau:
Online Stream:
Info:
Zeige NFOVerberge NFO
General
Format                                   : AVI
Format/Info                              : Audio Video Interleave
Format profile                           : OpenDML
Format settings                          : rec
File size                                : 1.94 GiB
Duration                                 : 2h 18mn
Overall bit rate                         : 2 016 Kbps
Writing application                      : AVI-Mux GUI 1.17.8.3, Feb 16 201019:42:50

Video
ID                                       : 0
Format                                   : xvid
Codec ID                                 : xvid
Duration                                 : 2h 18mn
Bit rate                                 : 1 498 Kbps
Width                                    : 720 pixels
Height                                   : 300 pixels
Display aspect ratio                     : 2.40:1
Frame rate                               : 23.976 fps
Bits/(Pixel*Frame)                       : 0.289
Stream size                              : 1.44 GiB (74%)

Audio #1
ID                                       : 1
Format                                   : AC-3
Format/Info                              : Audio Coding 3
Mode extension                           : CM (complete main)
Format settings, Endianness              : Big
Codec ID                                 : 2000
Duration                                 : 2h 18mn
Bit rate mode                            : Constant
Bit rate                                 : 384 Kbps
Channel(s)                               : 6 channels
Channel positions                        : Front: L C R, Side: L R, LFE
Sampling rate                            : 48.0 KHz
Compression mode                         : Lossy
Stream size                              : 379 MiB (19%)
Alignment                                : Aligned on interleaves
Interleave, duration                     : 64 ms (1.53 video frames)
Interleave, preload duration             : 192 ms
Title                                    : xf-stwaepvidaerdema

Audio #2
ID                                       : 2
Format                                   : MPEG Audio
Format version                           : Version 1
Format profile                           : Layer 3
Mode                                     : Joint stereo
Mode extension                           : MS Stereo
Codec ID                                 : 55
Codec ID/Hint                            : MP3
Duration                                 : 2h 18mn
Bit rate mode                            : Constant
Bit rate                                 : 128 Kbps
Channel(s)                               : 2 channels
Sampling rate                            : 44.1 KHz
Compression mode                         : Lossy
Stream size                              : 126 MiB (6%)
Alignment                                : Aligned on interleaves
Interleave, duration                     : 437 ms (10.48 video frames)
Interleave, preload duration             : 208 ms

Beschreibung:
Star.Wars.Episode.VII.Das.Erwachen.der.Macht.2015.German.AC3.5.1.BDRip.XviD-iNTERFilm
Gut dreißig Jahre nach Zerstörung des zweiten Todessterns und der Zerschlagung des Imperiums hat die dunkle Seite der Macht zu neuer Größe gefunden und sich unter dem Banner der Ersten Ordnung neu formiert. Unter der Führung des skrupellosen Supreme Leader Snoke terrorisieren seine Schergen die Galaxis, allen voran der finstere Kylo Ren. Nur Luke Skywalker scheint das Gleichgewicht der Macht wiederherstellen zu können, doch der Jedimeister ist verschwunden. General Leia Organa schickt ihren besten Piloten Poe Dameron auf die Suche nach ihm, doch auf seiner Mission gerät er in Gefangenschaft. Der fahnenflüchtige Sturmtruppler FN-2187 alias Finn kann Poe befreien, und bei der gemeinsamen Flucht landen sie auf dem Planeten Jakku, wo sie auf die Schrottsammlerin Rey treffen. Und auch der kleine Roboter BB-8 spielt auf der Suche nach Luke eine entscheidende Rolle.
Direct Download Links | DDL-Links

Ähnliche Releases der Kategorie