Star.Wars.Episode.VII.Das.Erwachen.der.Macht.2015.GERMAN.DL.AC3.BDRip.XviD-maxmann

21. April 2016 von
Star.Wars.Episode.VII.Das.Erwachen.der.Macht.2015.GERMAN.DL.AC3.BDRip.XviD-maxmann Warez-World
Aufrufe: 35 Hits
Vote 4 Us
Release:
Star Wars: Episode VII - Das Erwachen der Macht BD-RIP
Genre:
Action
Laufzeit:
135 Min.
Größe:
1921 MB
Passwort:
Warez-World.org
Sprachen:
Video Codec:
MPEG-4 DivX / Xvid
Audio Stream:
Dolby Digital 5.1
Bewertung:
Video Vorschau:
Online Stream:
Info:
Zeige NFOVerberge NFO
General
Format                                   : AVI
Format/Info                              : Audio Video Interleave
Format profile                           : OpenDML
File size                                : 1.88 GiB
Duration                                 : 2h 18mn
Overall bit rate                         : 1 944 Kbps
Movie name                               : SW7_max_084_SL
Writing application                      : Lavf56.9.100

Video
ID                                       : 0
Format                                   : MPEG-4 Visual
Format settings, BVOP                    : 2
Format settings, QPel                    : No
Format settings, GMC                     : No warppoints
Format settings, Matrix                  : Default (MPEG)
Muxing mode                              : Packed bitstream
Codec ID                                 : XVID
Codec ID/Hint                            : XviD
Duration                                 : 2h 18mn
Bit rate                                 : 1 485 Kbps
Width                                    : 720 pixels
Height                                   : 404 pixels
Display aspect ratio                     : 16:9
Frame rate                               : 23.976 fps
Color space                              : YUV
Chroma subsampling                       : 4:2:0
Bit depth                                : 8 bits
Scan type                                : Progressive
Compression mode                         : Lossy
Bits/(Pixel*Frame)                       : 0.213
Stream size                              : 1.43 GiB (76%)
Writing library                          : XviD 64

Audio
ID                                       : 1
Format                                   : AC-3
Format/Info                              : Audio Coding 3
Mode extension                           : CM (complete main)
Format settings, Endianness              : Big
Codec ID                                 : 2000
Duration                                 : 2h 18mn
Bit rate mode                            : Constant
Bit rate                                 : 448 Kbps
Channel(s)                               : 6 channels
Channel positions                        : Front: L C R, Side: L R, LFE
Sampling rate                            : 48.0 KHz
Compression mode                         : Lossy
Stream size                              : 443 MiB (23%)
Alignment                                : Aligned on interleaves
Interleave, duration                     : 32 ms (0.77 video frame)

Beschreibung:
Star.Wars.Episode.VII.Das.Erwachen.der.Macht.2015.GERMAN.DL.AC3.BDRip.XviD-maxmann
Gut dreißig Jahre nach Zerstörung des zweiten Todessterns und der Zerschlagung des Imperiums hat die dunkle Seite der Macht zu neuer Größe gefunden und sich unter dem Banner der Ersten Ordnung neu formiert. Unter der Führung des skrupellosen Supreme Leader Snoke terrorisieren seine Schergen die Galaxis, allen voran der finstere Kylo Ren. Nur Luke Skywalker scheint das Gleichgewicht der Macht wiederherstellen zu können, doch der Jedimeister ist verschwunden. General Leia Organa schickt ihren besten Piloten Poe Dameron auf die Suche nach ihm, doch auf seiner Mission gerät er in Gefangenschaft. Der fahnenflüchtige Sturmtruppler FN-2187 alias Finn kann Poe befreien, und bei der gemeinsamen Flucht landen sie auf dem Planeten Jakku, wo sie auf die Schrottsammlerin Rey treffen. Und auch der kleine Roboter BB-8 spielt auf der Suche nach Luke eine entscheidende Rolle.
Direct Download Links | DDL-Links

Ähnliche Releases der Kategorie