Star.Wars.Episode.VII.Das.Erwachen.Der.Macht.German.2015.AC3.BDRiP.XVID-OMS

21. April 2016 von
Star.Wars.Episode.VII.Das.Erwachen.Der.Macht.German.2015.AC3.BDRiP.XVID-OMS Warez-World
Aufrufe: 43 Hits
Vote 4 Us
Release:
Star Wars: Episode VII - Das Erwachen der Macht BD-RIP
Genre:
Action
Laufzeit:
135 Min.
Größe:
2153 MB
Passwort:
Warez-World.org
Sprachen:
Video Codec:
MPEG-4 DivX / Xvid
Audio Stream:
Dolby Digital 5.1
Bewertung:
Video Vorschau:
Online Stream:
Info:
Zeige NFOVerberge NFO
General
Format                                   : AVI
Format/Info                              : Audio Video Interleave
Format profile                           : OpenDML
File size                                : 2.10 GiB
Duration                                 : 2h 18mn
Overall bit rate                         : 2 179 Kbps
Movie name                               : Star.Wars.Episode.VII.Das.Erwachen.Der.Macht.German.2015.AC3.BDRiP.XVID-OMS
Genre                                    : Action
Recorded date                            : 2015
Writing application                      : Lavf57.2.100

Video
ID                                       : 0
Format                                   : MPEG-4 Visual
Format settings, BVOP                    : No
Format settings, QPel                    : No
Format settings, GMC                     : No warppoints
Format settings, Matrix                  : Default (H.263)
Codec ID                                 : DIVX
Codec ID/Info                            : Project Mayo
Codec ID/Hint                            : DivX 4
Duration                                 : 2h 18mn
Bit rate                                 : 1 721 Kbps
Width                                    : 720 pixels
Height                                   : 300 pixels
Display aspect ratio                     : 2.40:1
Frame rate                               : 24.000 fps
Color space                              : YUV
Chroma subsampling                       : 4:2:0
Bit depth                                : 8 bits
Scan type                                : Progressive
Compression mode                         : Lossy
Bits/(Pixel*Frame)                       : 0.332
Stream size                              : 1.66 GiB (79%)
Writing library                          : XviD 67

Audio
ID                                       : 1
Format                                   : AC-3
Format/Info                              : Audio Coding 3
Mode extension                           : CM (complete main)
Format settings, Endianness              : Big
Codec ID                                 : 2000
Duration                                 : 2h 18mn
Bit rate mode                            : Constant
Bit rate                                 : 448 Kbps
Channel(s)                               : 6 channels
Channel positions                        : Front: L C R, Side: L R, LFE
Sampling rate                            : 48.0 KHz
Bit depth                                : 16 bits
Compression mode                         : Lossy
Stream size                              : 443 MiB (21%)
Alignment                                : Aligned on interleaves
Interleave, duration                     : 32 ms (0.77 video frame)
Language                                 : German

Beschreibung:
Star.Wars.Episode.VII.Das.Erwachen.Der.Macht.German.2015.AC3.BDRiP.XVID-OMS
Gut dreißig Jahre nach Zerstörung des zweiten Todessterns und der Zerschlagung des Imperiums hat die dunkle Seite der Macht zu neuer Größe gefunden und sich unter dem Banner der Ersten Ordnung neu formiert. Unter der Führung des skrupellosen Supreme Leader Snoke terrorisieren seine Schergen die Galaxis, allen voran der finstere Kylo Ren. Nur Luke Skywalker scheint das Gleichgewicht der Macht wiederherstellen zu können, doch der Jedimeister ist verschwunden. General Leia Organa schickt ihren besten Piloten Poe Dameron auf die Suche nach ihm, doch auf seiner Mission gerät er in Gefangenschaft. Der fahnenflüchtige Sturmtruppler FN-2187 alias Finn kann Poe befreien, und bei der gemeinsamen Flucht landen sie auf dem Planeten Jakku, wo sie auf die Schrottsammlerin Rey treffen. Und auch der kleine Roboter BB-8 spielt auf der Suche nach Luke eine entscheidende Rolle.
Direct Download Links | DDL-Links

Ähnliche Releases der Kategorie