Suicide.Squad.German.LD.1080p.HC.HDRip.x264-MrP

7. Oktober 2016 von
Suicide.Squad.German.LD.1080p.HC.HDRip.x264-MrP Warez-World
Aufrufe: 80 Hits
Vote 4 Us
Release:
Suicide Squad BD-RIP
Genre:
Action
Laufzeit:
123 Min.
Größe:
4285 MB
Passwort:
Warez-World.org
Sprachen:
Video Codec:
MPEG-4 H.264 / AVC
Audio Stream:
Line
Bewertung:
Video Vorschau:
Online Stream:
Info:
Zeige NFOVerberge NFO
General
Unique ID: 198290319149858751421443754064137720045 (0x952D538A93F3840F9E09DB5D216490ED)
Format: Matroska
Format version: Version 4 / Version 2
File size: 4.18 GiB
Duration: 2h 2mn
Overall bit rate: 4 879 Kbps
Movie name: EVO
Encoded date: UTC 2016-10-07 17:49:09
Writing application: mkvmerge v8.2.0 ('World of Adventure') 64bit
Writing library: libebml v1.3.1 + libmatroska v1.4.2
DURATION: 02:02:47.328000000
NUMBER_OF_FRAMES: 230229
NUMBER_OF_BYTES: 176815872
_STATISTICS_WRITING_APP: mkvmerge v8.2.0 ('World of Adventure') 64bit
_STATISTICS_WRITING_DATE_UTC: 2016-10-07 17:49:09
_STATISTICS_TAGS: BPS DURATION NUMBER_OF_FRAMES NUMBER_OF_BYTES

Video
ID: 1
Format: AVC
Format/Info: Advanced Video Codec
Format profile: High@L4.1
Format settings, CABAC: Yes
Format settings, ReFrames: 4 frames
Codec ID: V_MPEG4/ISO/AVC
Duration: 2h 2mn
Bit rate: 4 700 Kbps
Width: 1 920 pixels
Height: 800 pixels
Display aspect ratio: 2.40:1
Frame rate mode: Constant
Frame rate: 29.970 fps
Color space: YUV
Chroma subsampling: 4:2:0
Bit depth: 8 bits
Scan type: Progressive
Bits/(Pixel*Frame): 0.102
Stream size: 3.94 GiB (94)
Writing library: x264 core 142 r2479 dd79a61
Encoding settings: cabac=1 / ref=1 / deblock=1:0:0 / analyse=0x3:0x113 / me=hex / subme=2 / psy=1 / psy_rd=1.00:0.00 / mixed_ref=0 / me_range=16 / chroma_me=1 / trellis=0 / 8x8dct=1 / cqm=0 / deadzone=21,11 / fast_pskip=1 / chroma_qp_offset=0 / threads=24 / lookahead_threads=6 / sliced_threads=0 / nr=0 / decimate=1 / interlaced=0 / bluray_compat=0 / constrained_intra=0 / bframes=3 / b_pyramid=2 / b_adapt=1 / b_bias=0 / direct=1 / weightb=1 / open_gop=0 / weightp=1 / keyint=300 / keyint_min=30 / scenecut=40 / intra_refresh=0 / rc_lookahead=10 / rc=abr / mbtree=1 / bitrate=4700 / ratetol=1.0 / qcomp=0.60 / qpmin=0 / qpmax=69 / qpstep=4 / vbv_maxrate=62500 / vbv_bufsize=78125 / nal_hrd=none / filler=0 / ip_ratio=1.40 / aq=1:1.00
Default: Yes
Forced: No
Color primaries: BT.709
Transfer characteristics: BT.709
Matrix coefficients: BT.709
DURATION: 02:02:47.293000000
NUMBER_OF_FRAMES: 220798
NUMBER_OF_BYTES: 4314027023
_STATISTICS_WRITING_APP: mkvmerge v8.2.0 ('World of Adventure') 64bit
_STATISTICS_WRITING_DATE_UTC: 2016-10-07 17:49:09
_STATISTICS_TAGS: BPS DURATION NUMBER_OF_FRAMES NUMBER_OF_BYTES

Audio
ID: 2
Format: AC-3
Format/Info: Audio Coding 3
Mode extension: CM (complete main)
Format settings, Endianness: Big
Codec ID: A_AC3
Duration: 2h 2mn
Bit rate mode: Constant
Bit rate: 192 Kbps
Channel(s): 2 channels
Channel positions: Front: L R
Sampling rate: 48.0 KHz
Bit depth: 16 bits
Compression mode: Lossy
Delay relative to video: -67ms
Stream size: 169 MiB (4)
Default: Yes
Forced: No

Bild: EVO
Ton: PSO
Beschreibung:
Suicide.Squad.German.LD.1080p.HC.HDRip.x264-MrP
Gift gegen Gift, Feuer gegen Feuer? Das zumindest scheint der Gedanke der amerikanischen Geheimagentin Amanda Waller (Viola Davis) zu sein, als sie einen heiklen Entschluss fasst: Um einer geheimnisvollen und unbesiegbar erscheinenden Bedrohung endgültig das Handwerk zu legen, gebraucht es mehr als nur hochgerüstete Soldaten auf einem Himmelfahrtskommando. Man braucht ganz einfach die gemeingefährlichsten Fieslinge, die derzeit im Gefängnis vor sich hin schmoren, denn die haben offenbar nichts mehr zu verlieren. Doch die illustre Truppe, zu der Knalltüten wie die exzentrische Harley Quinn (Margot Robbie), Deadshot (Will Smith), Rick Flag (Joel Kinnaman) und Captain Boomerang (Jai Courtney) gehören, merkt schnell, dass sie im Zweifelsfall einfach nur entbehrliches Kanonenfutter und Sündenbock sein soll. Da stellt sich ihnen unweigerlich die Frage, ob sie überhaupt noch den Auftrag ausführen sollen, was ihren sicheren Tod bedeuten würde, oder ob sie sich lieber selbst retten…
Direct Download Links | DDL-Links

Ähnliche Releases der Kategorie