In.Time.Deine.Zeit.laeuft.ab.2011.German.DTS.DL.1080p.BLURAY.AVC.REMUX-RHD

9. September 2016 von
In.Time.Deine.Zeit.laeuft.ab.2011.German.DTS.DL.1080p.BLURAY.AVC.REMUX-RHD Warez-World
Aufrufe: 27 Hits
Vote 4 Us
Release:
In Time - Deine Zeit läuft ab BD
Genre:
Thriller
Laufzeit:
105 Min.
Größe:
27731 MB
Passwort:
Warez-World.org
Sprachen:
Video Codec:
MPEG-4 H.264 / AVC
Audio Stream:
DTS 5.1
Bewertung:
Video Vorschau:
Online Stream:
Info:
Zeige NFOVerberge NFO
Jahr: 2011
Genre: Action Sci-Fi Thriller
Sprache: Deutsch DTS Englisch DTS-HD
Laufzeit: 1h49min
Bitrate: 32,5 Mbps
Format: MKV
Gre: 27,1 GB

Resolution: 19201080
Bitrate: UNTOUCHED
Audio #1: German DTS 5.1
Audio #2: English DTS-HD 5.1
Subtitles: German PGS

General
Complete name: rhd-it-rmx.mkv
Format: Matroska
Format version: Version 2
File size: 27.1 GiB
Duration: 1h 49mn
Overall bit rate mode: Variable
Overall bit rate: 35.5 Mbps
Encoded date: UTC 2012-02-11 22:20:40
Writing application: mkvmerge v4.8.0 ('I Got The') gebaut am May 24 2011 03:12:58
Writing library: libebml v1.2.0 + libmatroska v1.1.0

Video
ID: 1
Format: AVC
Format/Info: Advanced Video Codec
Format profile: High@L4.1
Format settings, CABAC: Yes
Format settings, ReFrames: 4 frames
Codec ID: V_MPEG4/ISO/AVC
Duration: 1h 49mn
Bit rate mode: Variable
Bit rate: 32.5 Mbps
Maximum bit rate: 32.5 Mbps
Width: 1 920 pixels
Height: 1 080 pixels
Display aspect ratio: 16:9
Frame rate: 23.976 fps
Color space: YUV
Chroma subsampling: 4:2:0
Bit depth: 8 bits
Scan type: Progressive
Bits/(Pixel*Frame): 0.653
Stream size: 24.8 GiB (91)

Audio #1
ID: 2
Format: DTS
Format/Info: Digital Theater Systems
Codec ID: A_DTS
Duration: 1h 49mn
Bit rate mode: Constant
Bit rate: 755 Kbps
Channel(s): 6 channels
Channel positions: Front: L C R, Side: L R, LFE
Sampling rate: 48.0 KHz
Bit depth: 24 bits
Compression mode: Lossy
Stream size: 590 MiB (2)
Language: German

Audio #2
ID: 3
Format: DTS
Format/Info: Digital Theater Systems
Format profile: MA / Core
Codec ID: A_DTS
Duration: 1h 49mn
Bit rate mode: Variable
Bit rate: 1 561 Kbps / 1 510 Kbps
Channel(s): 6 channels
Channel positions: Front: L C R, Side: L R, LFE
Sampling rate: 48.0 KHz
Bit depth: 24 bits
Compression mode: Lossless / Lossy
Language: English

Text #1
ID: 4
Format: VobSub
Muxing mode: zlib
Codec ID: S_VOBSUB
Codec ID/Info: The same subtitle format used on DVDs
Language: German

Text #2
ID: 5
Format: PGS
Muxing mode: zlib
Codec ID: S_HDMV/PGS
Codec ID/Info: The same subtitle format used on BDs/HD-DVDs
Language: German
Beschreibung:
In.Time.Deine.Zeit.laeuft.ab.2011.German.DTS.DL.1080p.BLURAY.AVC.REMUX-RHD
Die nahe Zukunft: Geld wurde als offizielle Währung durch Zeit ersetzt. Mit 25 hören die Menschen auf zu altern. Sie sind genetisch so ausgestattet, dass sie nur noch ein Jahr lang überleben können, es sei denn sie schaffen es, Zeit zu gewinnen. Die Reichen können sich Tausende von Jahren und somit ewige Jugend und Unsterblichkeit erkaufen, während die Armen betteln, leihen und Minute für Minute stehlen, nur um den Tag zu überstehen. In dieser Welt lebt Will Salas. Als ein reicher Fremder in sein Leben tritt und kurz darauf stirbt, wird Will fälschlicherweise des Mordes beschuldigt. Seine Flucht gelingt ihm, indem er die attraktive Sylvia, die Tochter eines reichen Zeitmoguls, als Geisel nimmt. Als der kompromisslose Timekeeper Raymond die Verfolgung aufnimmt, beginnt für Will ein Wettlauf gegen die Zeit...
Direct Download Links | DDL-Links

Ähnliche Releases der Kategorie