Traenen.der.Sonne.Directors.Extended.Cut.DL.1080p.BluRay.AVC.Remux-iND

8. August 2016 von
Traenen.der.Sonne.Directors.Extended.Cut.DL.1080p.BluRay.AVC.Remux-iND Warez-World
Aufrufe: 71 Hits
Vote 4 Us
Release:
Tränen der Sonne BD
Genre:
Thriller
Laufzeit:
142 Min.
Größe:
26774 MB
Passwort:
Warez-World.org
Sprachen:
Video Codec:
MPEG-4 H.264 / AVC
Audio Stream:
Dolby Digital 5.1
Bewertung:
Video Vorschau:
Online Stream:
Hinweise:
Extended Cut
Info:
Zeige NFOVerberge NFO
General
Format                                   : Matroska
Format version                           : Version 4 / Version 2
File size                                : 26.1 GiB
Duration                                 : 2h 22mn
Overall bit rate mode                    : Variable
Overall bit rate                         : 26.3 Mbps
Encoded date                             : UTC 2015-06-03 11:38:08
Writing application                      : mkvmerge v7.9.0 ('Birds') 64bit
Writing library                          : libebml v1.3.1 + libmatroska v1.4.2
DURATION                                 : 02:22:30.144000000
NUMBER_OF_FRAMES                         : 267192
NUMBER_OF_BYTES                          : 478808064
_STATISTICS_WRITING_APP                  : mkvmerge v7.9.0 ('Birds') 64bit
_STATISTICS_WRITING_DATE_UTC             : 2015-06-03 11:38:08
_STATISTICS_TAGS                         : BPS DURATION NUMBER_OF_FRAMES NUMBER_OF_BYTES

Video
ID                                       : 1
Format                                   : AVC
Format/Info                              : Advanced Video Codec
Format settings, CABAC                   : Yes
Format settings, ReFrames                : 4 frames
Codec ID                                 : V_MPEG4/ISO/AVC
Duration                                 : 2h 22mn
Bit rate mode                            : Variable
Bit rate                                 : 24.8 Mbps
Maximum bit rate                         : 40.0 Mbps
Width                                    : 1 920 pixels
Height                                   : 1 080 pixels
Display aspect ratio                     : 16:9
Frame rate mode                          : Constant
Frame rate                               : 23.976 fps
Standard                                 : NTSC
Color space                              : YUV
Chroma subsampling                       : 4:2:0
Bit depth                                : 8 bits
Scan type                                : Progressive
Bits/(Pixel*Frame)                       : 0.500
Stream size                              : 24.7 GiB (95%)
Default                                  : Yes
Forced                                   : No
Color range                              : Limited
Color primaries                          : BT.709
Transfer characteristics                 : BT.709
Matrix coefficients                      : BT.709

Audio #1
ID                                       : 2
Format                                   : AC-3
Format/Info                              : Audio Coding 3
Mode extension                           : CM (complete main)
Format settings, Endianness              : Big
Codec ID                                 : A_AC3
Duration                                 : 2h 22mn
Bit rate mode                            : Constant
Bit rate                                 : 448 Kbps
Channel(s)                               : 6 channels
Channel positions                        : Front: L C R, Side: L R, LFE
Sampling rate                            : 48.0 KHz
Compression mode                         : Lossy
Delay relative to video                  : 27ms
Stream size                              : 457 MiB (2%)
Title                                    : German Dolby Digital 5.1
Language                                 : German
Default                                  : Yes
Forced                                   : No

Audio #2
ID                                       : 3
Format                                   : AC-3
Format/Info                              : Audio Coding 3
Mode extension                           : CM (complete main)
Format settings, Endianness              : Big
Codec ID                                 : A_AC3
Duration                                 : 2h 22mn
Bit rate mode                            : Constant
Bit rate                                 : 448 Kbps
Channel(s)                               : 6 channels
Channel positions                        : Front: L C R, Side: L R, LFE
Sampling rate                            : 48.0 KHz
Compression mode                         : Lossy
Delay relative to video                  : 27ms
Stream size                              : 457 MiB (2%)
Title                                    : English Dolby Digital 5.1
Language                                 : English
Default                                  : No
Forced                                   : No

Text #1
ID                                       : 4
Format                                   : PGS
Muxing mode                              : zlib
Codec ID                                 : S_HDMV/PGS
Codec ID/Info                            : Picture based subtitle format used on BDs/HD-DVDs
Language                                 : German
Default                                  : Yes
Forced                                   : No

Text #2
ID                                       : 5
Format                                   : PGS
Muxing mode                              : zlib
Codec ID                                 : S_HDMV/PGS
Codec ID/Info                            : Picture based subtitle format used on BDs/HD-DVDs
Language                                 : English
Default                                  : No
Forced                                   : No

Beschreibung:
Traenen.der.Sonne.Directors.Extended.Cut.DL.1080p.BluRay.AVC.Remux-iND
Ein Routineauftrag wird für A. K. Waters, Lieutenant einer acht Mann starken Navy-Spezialeinheit, zur Gewissensprobe: aus einem Krisengebiet in Afrika soll die Amerikanerin Dr. Kendricks gerettet werden, die mitten im Dschungel ein Missionskrankenhaus leitet, während das Land um sie herum vom Bürgerkrieg zerrüttet wird. Alles verläuft nach Plan, bis sich Kendricks weigert, die Menschen zurückzulassen, die in der Mission auf Schutz und Hilfe gehofft hatten, und Waters und seine Männer Zeuge werden, wie brutal die Rebellen gegen die Bevölkerung vorgehen. Entgegen den strikten Anweisungen seines Captains Bill Rhodes entscheidet Waters schließlich, sein eigenes Leben und das der Truppe zu riskieren, um die Dorfbewohner auf einem gefährlichen Marsch durch den Dschungel zur nahen Grenze zu leiten.
Direct Download Links | DDL-Links

Ähnliche Releases der Kategorie