The.Trust.Big.Trouble.in.Sin.City.2016.German.AC3.BDRiP.XViD-HaN

15. April 2016 von
The.Trust.Big.Trouble.in.Sin.City.2016.German.AC3.BDRiP.XViD-HaN Warez-World
Aufrufe: 27 Hits
Vote 4 Us
Release:
The Trust BD-RIP
Genre:
Thriller
Größe:
997 MB
Passwort:
Warez-World.org
Sprachen:
Video Codec:
MPEG-4 DivX / Xvid
Audio Stream:
Dolby Digital 5.1
Bewertung:
Video Vorschau:
Online Stream:
Info:
Zeige NFOVerberge NFO
General
Format                                   : AVI
Format/Info                              : Audio Video Interleave
File size                                : 996 MiB
Duration                                 : 1h 31mn
Overall bit rate                         : 1 518 Kbps

Video
ID                                       : 0
Format                                   : MPEG-4 Visual
Format settings, BVOP                    : 2
Format settings, QPel                    : No
Format settings, GMC                     : No warppoints
Format settings, Matrix                  : Default (H.263)
Codec ID                                 : XVID
Codec ID/Hint                            : XviD
Duration                                 : 1h 31mn
Bit rate                                 : 1 063 Kbps
Width                                    : 720 pixels
Height                                   : 384 pixels
Display aspect ratio                     : 1.85:1
Frame rate                               : 23.976 fps
Color space                              : YUV
Chroma subsampling                       : 4:2:0
Bit depth                                : 8 bits
Scan type                                : Progressive
Compression mode                         : Lossy
Bits/(Pixel*Frame)                       : 0.160
Stream size                              : 697 MiB (70%)
Writing library                          : XviD 67

Audio
ID                                       : 1
Format                                   : AC-3
Format/Info                              : Audio Coding 3
Mode extension                           : CM (complete main)
Format settings, Endianness              : Big
Codec ID                                 : 2000
Duration                                 : 1h 31mn
Bit rate mode                            : Constant
Bit rate                                 : 448 Kbps
Channel(s)                               : 6 channels
Channel positions                        : Front: L C R, Side: L R, LFE
Sampling rate                            : 48.0 KHz
Compression mode                         : Lossy
Stream size                              : 294 MiB (30%)
Alignment                                : Aligned on interleaves
Interleave, duration                     : 64 ms (1.53 video frames)
Interleave, preload duration             : 192 ms
Title                                    : ger

Text
ID                                       : 2
Format                                   : SubRip
Duration                                 : 1h 31mn
Bit rate                                 : 1 bps
Compression mode                         : Lossless
Stream size                              : 866 Bytes (0%)
Title                                    : track3_ger

Beschreibung:
The.Trust.Big.Trouble.in.Sin.City.2016.German.AC3.BDRiP.XViD-HaN
Im Mittelpunkt der Handlung stehen die beiden zwielichtigen Cops David Waters und Jim Stone, die bei ihrer Arbeit bei der Beweissicherung auf einen versteckten Safe stoßen. Das weckt ihr Interesse und führt sie aber auch in einen Sumpf der Korruption, wo sie um ihr Leben fürchten und jeden ihrer Schritte genau bedenken müssen.
Direct Download Links | DDL-Links

Ähnliche Releases der Kategorie