The.Trust.Big.Trouble.In.Sin.City.German.2016.AC3.BDRiP.XVID-OMS

15. April 2016 von
The.Trust.Big.Trouble.In.Sin.City.German.2016.AC3.BDRiP.XVID-OMS Warez-World
Aufrufe: 111 Hits
Vote 4 Us
Release:
The Trust BD-RIP
Genre:
Thriller
Größe:
1066 MB
Passwort:
Warez-World.org
Sprachen:
Video Codec:
MPEG-4 DivX / Xvid
Audio Stream:
Dolby Digital 5.1
Bewertung:
Video Vorschau:
Online Stream:
Info:
Zeige NFOVerberge NFO
General
Format                                   : AVI
Format/Info                              : Audio Video Interleave
Format profile                           : OpenDML
File size                                : 1.04 GiB
Duration                                 : 1h 31mn
Overall bit rate                         : 1 624 Kbps
Movie name                               : The.Trust.Big.Trouble.In.Sin.City.German.2016.AC3.BDRiP.XVID-OMS
Genre                                    : Krimi
Recorded date                            : 2016
Writing application                      : Lavf57.2.100

Video
ID                                       : 0
Format                                   : MPEG-4 Visual
Format settings, BVOP                    : No
Format settings, QPel                    : No
Format settings, GMC                     : No warppoints
Format settings, Matrix                  : Default (H.263)
Codec ID                                 : DIVX
Codec ID/Info                            : Project Mayo
Codec ID/Hint                            : DivX 4
Duration                                 : 1h 5mn
Bit rate                                 : 1 621 Kbps
Width                                    : 720 pixels
Height                                   : 390 pixels
Display aspect ratio                     : 1.85:1
Frame rate                               : 24.000 fps
Color space                              : YUV
Chroma subsampling                       : 4:2:0
Bit depth                                : 8 bits
Scan type                                : Progressive
Compression mode                         : Lossy
Bits/(Pixel*Frame)                       : 0.241
Stream size                              : 764 MiB (72%)
Writing library                          : XviD 67

Audio
ID                                       : 1
Format                                   : AC-3
Format/Info                              : Audio Coding 3
Mode extension                           : CM (complete main)
Format settings, Endianness              : Big
Codec ID                                 : 2000
Duration                                 : 1h 31mn
Bit rate mode                            : Constant
Bit rate                                 : 448 Kbps
Channel(s)                               : 6 channels
Channel positions                        : Front: L C R, Side: L R, LFE
Sampling rate                            : 48.0 KHz
Bit depth                                : 16 bits
Compression mode                         : Lossy
Stream size                              : 294 MiB (28%)
Alignment                                : Aligned on interleaves
Interleave, duration                     : 23 ms (0.55 video frame)
Language                                 : German

Beschreibung:
The.Trust.Big.Trouble.In.Sin.City.German.2016.AC3.BDRiP.XVID-OMS
Im Mittelpunkt der Handlung stehen die beiden zwielichtigen Cops David Waters und Jim Stone, die bei ihrer Arbeit bei der Beweissicherung auf einen versteckten Safe stoßen. Das weckt ihr Interesse und führt sie aber auch in einen Sumpf der Korruption, wo sie um ihr Leben fürchten und jeden ihrer Schritte genau bedenken müssen.
Direct Download Links | DDL-Links

Ähnliche Releases der Kategorie