Tschiller.Off.Duty.2016.German.BDRip.x264-CONTRiBUTiON

31. Juli 2016 von
Tschiller.Off.Duty.2016.German.BDRip.x264-CONTRiBUTiON Warez-World
Aufrufe: 46 Hits
Vote 4 Us
Release:
Tschiller: Off Duty BD-RIP
Genre:
Action
Laufzeit:
135 Min.
Größe:
1218 MB
Passwort:
Warez-World.org
Sprachen:
Video Codec:
MPEG-4 H.264 / AVC
Audio Stream:
Dolby Digital 5.1
Bewertung:
Video Vorschau:
Online Stream:
Info:
Zeige NFOVerberge NFO
General
Format                                   : Matroska
Format version                           : Version 2
File size                                : 1.18 GiB
Duration                                 : 2h 20mn
Overall bit rate                         : 1 205 Kbps
Writing application                      : mkvmerge v6.6.0 ('The Edge Of The In Between') built on Dec 1 2013 17:55:00
Writing library                          : libebml v1.3.0 + libmatroska v1.4.1

Video
ID                                       : 1
Format                                   : AVC
Format/Info                              : Advanced Video Codec
Format settings, CABAC                   : Yes
Format settings, ReFrames                : 5 frames
Codec ID                                 : V_MPEG4/ISO/AVC
Duration                                 : 2h 20mn
Bit rate                                 : 797 Kbps
Width                                    : 720 pixels
Height                                   : 300 pixels
Display aspect ratio                     : 2.40:1
Frame rate mode                          : Constant
Frame rate                               : 23.976 fps
Color space                              : YUV
Chroma subsampling                       : 4:2:0
Bit depth                                : 8 bits
Scan type                                : Progressive
Bits/(Pixel*Frame)                       : 0.154
Stream size                              : 799 MiB (66%)
Writing library                          : x264 core 148 r2705 3f5ed56
Encoding settings                        : cabac=1 / ref=5 / deblock=1:-3:-3 / analyse=0x3:0x113 / me=umh / subme=7 / psy=1 / psy_rd=1.00:0.15 / mixed_ref=1 / me_range=16 / chroma_me=1 / trellis=1 / 8x8dct=1 / cqm=0 / deadzone=21,11 / fast_pskip=0 / chroma_qp_offset=-3 / threads=9 / lookahead_threads=1 / sliced_threads=0 / nr=0 / decimate=1 / interlaced=0 / bluray_compat=0 / constrained_intra=0 / bframes=3 / b_pyramid=2 / b_adapt=2 / b_bias=0 / direct=3 / weightb=1 / open_gop=0 / weightp=2 / keyint=240 / keyint_min=23 / scenecut=40 / intra_refresh=0 / rc_lookahead=40 / rc=crf / mbtree=1 / crf=19.0 / qcomp=0.60 / qpmin=0 / qpmax=69 / qpstep=4 / ip_ratio=1.40 / aq=1:1.00
Language                                 : English
Default                                  : Yes
Forced                                   : No
Color range                              : Limited
Matrix coefficients                      : BT.709

Audio
ID                                       : 2
Format                                   : AC-3
Format/Info                              : Audio Coding 3
Mode extension                           : CM (complete main)
Format settings, Endianness              : Big
Codec ID                                 : A_AC3
Duration                                 : 2h 20mn
Bit rate mode                            : Constant
Bit rate                                 : 384 Kbps
Channel(s)                               : 6 channels
Channel positions                        : Front: L C R, Side: L R, LFE
Sampling rate                            : 48.0 KHz
Compression mode                         : Lossy
Stream size                              : 385 MiB (32%)
Language                                 : German
Default                                  : Yes
Forced                                   : No

Menu
00:00:00.000                             : en:00:00:00.000
00:13:13.459                             : en:00:13:13.459
00:25:20.811                             : en:00:25:20.811
00:37:41.468                             : en:00:37:41.468
00:51:15.572                             : en:00:51:15.572
00:59:29.941                             : en:00:59:29.941
01:11:41.547                             : en:01:11:41.547
01:23:59.743                             : en:01:23:59.743
01:38:16.307                             : en:01:38:16.307
01:49:34.401                             : en:01:49:34.401
02:00:01.528                             : en:02:00:01.528
02:15:49.183                             : en:02:15:49.183

Beschreibung:
Tschiller.Off.Duty.2016.German.BDRip.x264-CONTRiBUTiON
Nach seinen Alleingängen im Zusammenhang mit dem Ausbruchsversuch seines Erzfeindes Firat Astan (Erdal Yildiz), der Ermordung seiner Ex-Frau Isabella Schoppenroth (Stefanie Stappenbeck) und einer Aufsehen erregenden Geiselnahme wurde LKA-Ermittler Nick Tschiller (Til Schweiger) für eine Weile außer Dienst gesetzt. Er will die Zeit nutzen, um sich als nun alleinerziehender Vater endlich mehr um seine Tochter Lenny (Luna Schweiger) zu kümmern. Doch dann verschwindet diese. Tschillers loyaler Partner Yalcin Gümer (Fahri Yardim) kann Lennys Handy in Istanbul orten. Das Mädchen will in der Türkei wohl auf eigene Faust ihre Mutter rächen. Als Nick erfährt, dass auch noch sein Erzfeind aus dem türkischen Knast entkommen konnte, weiß er, dass seine Tochter in Gefahr ist. So muss er wieder das tun, was er am besten kann: Er greift zur Waffe. Als er in Istanbul erfährt, dass seine Tochter in die Fänge russischer Gangster geraten ist und zwielichtige Organhändler sie nach Moskau verschleppt haben, wo sie Lenny „ausschlachten“ wollen, beginnt für Nick endgültig ein Rennen gegen die Zeit… Kino-Spin-off der „Tatort“-Reihe mit Til Schweiger. Der Film knüpft dabei an die Handlung der vier vorangegangenen TV-Krimis an, funktioniert aber eigenständig.
Direct Download Links | DDL-Links

Ähnliche Releases der Kategorie