Ufo.Es.ist.Hier.2016.German.AC3.HDRip.x264-Cancer58

31. Oktober 2016 von
Ufo.Es.ist.Hier.2016.German.AC3.HDRip.x264-Cancer58 Warez-World
Aufrufe: 326 Hits
Vote 4 Us
Release:
UFO - ES ist hier BD-RIP
Genre:
Horror
Laufzeit:
87 Min.
Größe:
1179 MB
Passwort:
Warez-World.org
Sprachen:
Video Codec:
MPEG-4 H.264 / AVC
Audio Stream:
Dolby Digital 5.1
Bewertung:
Video Vorschau:
Online Stream:
Info:
Zeige NFOVerberge NFO
Ufo.Es.ist.Hier.2016.German.AC3.HDRip.x264-Cancer58.mkv
.
Format                                   : Matroska
Format version                           : Version 4 / Version 2
File size                                : 1.15 GiB
Duration                                 : 1 h 22 min
Overall bit rate                         : 2 006 kb/s
Movie name                               : Cancer58
Encoded date                             : UTC 2016-10-31 16:35:33 / UTC 2016-10-31T16:08:53Z
Writing application                      : mkvmerge v9.5.0 ('Quiet Fire') 64bit
Writing library                          : libebml v1.3.4 + libmatroska v1.4.5 / Lavf55.12.0
.
Video
ID                                       : 1
Format                                   : AVC
Format/Info                              : Advanced Video Codec
Format profile                           : Main@L4
Format settings, CABAC                   : Yes
Format settings, ReFrames                : 4 frames
Codec ID                                 : V_MPEG4/ISO/AVC
Duration                                 : 1 h 22 min
Bit rate                                 : 1 850 kb/s
Width                                    : 720 pixels
Height                                   : 406 pixels
Display aspect ratio                     : 16:9
Original display aspect ratio            : 16:9
Frame rate mode                          : Constant
Frame rate                               : 25.000 FPS
Color space                              : YUV
Chroma subsampling                       : 4:2:0
Bit depth                                : 8 bits
Scan type                                : Progressive
Bits/(Pixel*Frame)                       : 0.253
Stream size                              : 1.02 GiB (88%)
Writing library                          : x264 core 148
.
Audio
ID                                       : 2
Format                                   : AC-3
Format/Info                              : Audio Coding 3
Mode extension                           : CM (complete main)
Format settings, Endianness              : Big
Codec ID                                 : A_AC3
Duration                                 : 1 h 22 min
Bit rate mode                            : Constant
Bit rate                                 : 192 kb/s
Channel(s)                               : 2 channels
Channel positions                        : Front: L R
Sampling rate                            : 48.0 kHz
Frame rate                               : 31.250 FPS (1536 spf)
Compression mode                         : Lossy
Delay relative to video                  : -5 ms
Stream size                              : 113 MiB (10%)
Title                                    : Stereo
Default                                  : Yes
Forced                                   : No
.
Plot:   http://tinyurl.com/jkhdkt5
.
EOF

Beschreibung:
Ufo.Es.ist.Hier.2016.German.AC3.HDRip.x264-Cancer58
Während der Dreharbeiten für ihr Abschlussprojekt beobachten fünf Filmstudenten eine mysteriöse Feuerkugel, die am Himmel entlang schießt und dann weit entfernt am Horizont einschlägt. In der Überzeugung, dass es sich um einen Meteoriten handelt, machen sie sich auf den Weg zum vermuteten Einschlagspunkt, um das Phänomen mit ihren Kameras zu dokumentieren. In einem abgelegenen Waldgebiet finden sie eine verbrannte Einschlagschneise. Da es bereits zu dunkel zum Filmen ist, richten sie sich für die Nacht ein. Am nächsten Morgen müssen sie feststellen, dass einer von ihnen fehlt. Auf der Suche nach dem Vermissten stoßen sie erst auf eine Blutspur und machen dann einen grauenhaften Fund: die zerfetzten Überreste ihres Freundes. Als die Studenten in Panik zum Wagen zurück wollen, verirren sie sich und geraten dabei immer tiefer in die Wildnis. Schon bald merken sie, dass sie dort nicht allein sind - denn etwas macht Jagd auf sie. Etwas, das nicht von dieser Welt ist…
Direct Download Links | DDL-Links

Ähnliche Releases der Kategorie