Umrika.2015.German.WEBRip.Xvid-NightCity

21. April 2016 von
Umrika.2015.German.WEBRip.Xvid-NightCity Warez-World
Aufrufe: 26 Hits
Vote 4 Us
Release:
Umrika WEB-RIP
Genre:
Drama
Laufzeit:
101 Min.
Größe:
747 MB
Passwort:
Warez-World.org
Sprachen:
Video Codec:
MPEG-4 DivX / Xvid
Audio Stream:
Stereo
Bewertung:
Video Vorschau:
Online Stream:
Info:
Zeige NFOVerberge NFO
General
Format                                   : AVI
Format/Info                              : Audio Video Interleave
File size                                : 747 MiB
Duration                                 : 1h 40mn
Overall bit rate                         : 1 037 Kbps
Writing library                          : VirtualDub build 35576/release

Video
ID                                       : 0
Format                                   : MPEG-4 Visual
Format settings, BVOP                    : 2
Format settings, QPel                    : No
Format settings, GMC                     : No warppoints
Format settings, Matrix                  : Default (H.263)
Muxing mode                              : Packed bitstream
Codec ID                                 : XVID
Codec ID/Hint                            : XviD
Duration                                 : 1h 40mn
Bit rate                                 : 900 Kbps
Width                                    : 720 pixels
Height                                   : 300 pixels
Display aspect ratio                     : 2.40:1
Frame rate                               : 24.000 fps
Color space                              : YUV
Chroma subsampling                       : 4:2:0
Bit depth                                : 8 bits
Scan type                                : Progressive
Compression mode                         : Lossy
Bits/(Pixel*Frame)                       : 0.174
Stream size                              : 648 MiB (87%)
Writing library                          : XviD 73

Audio
ID                                       : 1
Format                                   : MPEG Audio
Format version                           : Version 1
Format profile                           : Layer 3
Mode                                     : Joint stereo
Codec ID                                 : 55
Codec ID/Hint                            : MP3
Duration                                 : 1h 40mn
Bit rate mode                            : Constant
Bit rate                                 : 128 Kbps
Channel(s)                               : 2 channels
Sampling rate                            : 44.1 KHz
Compression mode                         : Lossy
Stream size                              : 92.0 MiB (12%)
Alignment                                : Split accross interleaves
Interleave, duration                     : 42 ms (1.00 video frame)
Interleave, preload duration             : 501 ms

Beschreibung:
Umrika.2015.German.WEBRip.Xvid-NightCity
Ein ganzes indisches Dorf ist stolz auf einen jungen Mann, den es Mitte der 80er-Jahre nach Amerika zieht. Detailliert und zuverlässig schickt er Briefe an die Daheimgebliebenen, um ihnen seine Eindrücke zu schildern. Doch eines Tages kommen auf einmal keine Briefe mehr an und niemand weiß warum. Der kleine Bruder des Verschwundenen, Rama, und dessen bester Freund Lalu machen sich gemeinsam auf den Weg, um die Spur von Ramas Bruder nachzuverfolgen und ihn wiederzufinden...
Direct Download Links | DDL-Links

Ähnliche Releases der Kategorie