Van.Helsing.S01.Complete.German.AC3.1080p.Web.-.Rip.x264.-.Dicker

27. Dezember 2016 von
Van.Helsing.S01.Complete.German.AC3.1080p.Web.-.Rip.x264.-.Dicker Warez-World
Aufrufe: 90 Hits
Vote 4 Us
Release:
Van Helsing S01 WEBRiP
Genre:
Fantasy
Laufzeit:
44 Min.
Größe:
13342 MB
Passwort:
Warez-World.org
Sprachen:
Video Codec:
MPEG-4 H.264 / AVC
Audio Stream:
Dolby Digital 2.0
Bewertung:
Video Vorschau:
Online Stream:
Hinweise:
.mkv
Info:
Zeige NFOVerberge NFO
General
Unique ID                   : 203607709528338373427223851076969322508 (0x992D6B20C6A9DD81BE1E2DDA3A44580C)
Complete name               : Van Helsing S01E01 German AC3 1080p WebRip x264 - by Dicker.mkv
Format                      : Matroska
Format version              : Version 4 / Version 2
File size                   : 1.01 GiB
Duration                    : 44mn 1s
Overall bit rate            : 3 289 Kbps
Encoded date                : UTC 2016-12-21 01:12:00
Writing application         : mkvmerge v8.8.0 ('Wind at my back') 32bit
Writing library             : libebml v1.3.3 + libmatroska v1.4.4

Video
ID                          : 1
Format                      : AVC
Format/Info                 : Advanced Video Codec
Format profile              : High@L4
Format settings, CABAC      : Yes
Format settings, ReFrames   : 4 frames
Codec ID                    : V_MPEG4/ISO/AVC
Duration                    : 44mn 1s
Bit rate                    : 3 063 Kbps
Width                       : 1 920 pixels
Height                      : 1 080 pixels
Display aspect ratio        : 16:9
Frame rate mode             : Constant
Frame rate                  : 29.970 (30000/1001) fps
Color space                 : YUV
Chroma subsampling          : 4:2:0
Bit depth                   : 8 bits
Scan type                   : Progressive
Bits/(Pixel*Frame)          : 0.049
Stream size                 : 964 MiB (93%)
Writing library             : x264 core 130 r2273 b3065e6
Encoding settings           : cabac=1 / ref=3 / deblock=1:0:0 / analyse=0x3:0x113 / me=hex / subme=7 / psy=1 / psy_rd=1.00:0.00 / mixed_ref=1 / me_range=16 / chroma_me=1 / trellis=1 / 8x8dct=1 / cqm=0 / deadzone=21,11 / fast_pskip=1 / chroma_qp_offset=-2 / threads=6 / lookahead_threads=1 / sliced_threads=0 / nr=0 / decimate=1 / interlaced=0 / bluray_compat=0 / constrained_intra=0 / bframes=3 / b_pyramid=2 / b_adapt=1 / b_bias=0 / direct=1 / weightb=1 / open_gop=0 / weightp=2 / keyint=300 / keyint_min=30 / scenecut=40 / intra_refresh=0 / rc_lookahead=40 / rc=crf / mbtree=1 / crf=20.0 / qcomp=0.60 / qpmin=0 / qpmax=69 / qpstep=4 / vbv_maxrate=25000 / vbv_bufsize=31250 / crf_max=0.0 / nal_hrd=none / ip_ratio=1.40 / aq=1:1.00
Language                    : English
Default                     : Yes
Forced                      : No
Color range                 : Limited
Color primaries             : BT.709
Transfer characteristics    : BT.709
Matrix coefficients         : BT.709

Audio
ID                          : 2
Format                      : AC-3
Format/Info                 : Audio Coding 3
Mode extension              : CM (complete main)
Format settings, Endianness : Big
Codec ID                    : A_AC3
Duration                    : 44mn 1s
Bit rate mode               : Constant
Bit rate                    : 224 Kbps
Channel(s)                  : 2 channels
Channel positions           : Front: L R
Sampling rate               : 48.0 KHz
Frame rate                  : 31.250 fps (1536 spf)
Compression mode            : Lossy
Stream size                 : 70.5 MiB (7%)
Default                     : No
Forced                      : No
Beschreibung:
Van.Helsing.S01.Complete.German.AC3.1080p.Web.-.Rip.x264.-.Dicker
In der Serie „Van Helsing“ begleiten wir die Tochter des berühmten Vampirjägers Abraham Van Helsing. Fünf Jahre nach ihrem Tod wird sie wiederbelebt und findet sich in einer Welt wieder, in der Vampire das Sagen haben. Nun ist sie die letzte Hoffnung der Menschheit, um diese aus den Klauen der Untoten zu befreien, denn ihr Blut besitzt die einzigartige Eigenschaft, die Blutsauger zurück in Menschen verwandeln zu können.
Direct Download Links | DDL-Links

Ähnliche Releases der Kategorie