Vor.ihren.Augen.2015.German.AC3.BDRiP.XviD-FIJ

16. Juli 2016 von
Vor.ihren.Augen.2015.German.AC3.BDRiP.XviD-FIJ Warez-World
Aufrufe: 25 Hits
Vote 4 Us
Release:
Vor ihren Augen BD-RIP
Genre:
Drama
Laufzeit:
112 Min.
Größe:
1403 MB
Passwort:
Warez-World.org
Sprachen:
Video Codec:
MPEG-4 DivX / Xvid
Audio Stream:
Dolby Digital 5.1
Bewertung:
Video Vorschau:
Online Stream:
Info:
Zeige NFOVerberge NFO
General
Format                                   : AVI
Format/Info                              : Audio Video Interleave
File size                                : 1.37 GiB
Duration                                 : 1h 51mn
Overall bit rate                         : 1 763 Kbps
Writing application                      : VirtualDubModRus 1.5.10.2 (build 2540/release)
Writing library                          : VirtualDubMod build 2540/release

Video
ID                                       : 0
Format                                   : MPEG-4 Visual
Format settings, BVOP                    : No
Format settings, QPel                    : No
Format settings, GMC                     : No warppoints
Format settings, Matrix                  : Default (H.263)
Codec ID                                 : XVID
Codec ID/Hint                            : XviD
Duration                                 : 1h 51mn
Bit rate                                 : 1 305 Kbps
Width                                    : 720 pixels
Height                                   : 304 pixels
Display aspect ratio                     : 2.35:1
Frame rate                               : 23.976 fps
Color space                              : YUV
Chroma subsampling                       : 4:2:0
Bit depth                                : 8 bits
Scan type                                : Progressive
Compression mode                         : Lossy
Bits/(Pixel*Frame)                       : 0.249
Stream size                              : 1.01 GiB (74%)
Writing library                          : XviD 64

Audio
ID                                       : 1
Format                                   : AC-3
Format/Info                              : Audio Coding 3
Mode extension                           : CM (complete main)
Format settings, Endianness              : Big
Codec ID                                 : 2000
Duration                                 : 1h 51mn
Bit rate mode                            : Constant
Bit rate                                 : 448 Kbps
Channel(s)                               : 6 channels
Channel positions                        : Front: L C R, Side: L R, LFE
Sampling rate                            : 48.0 KHz
Compression mode                         : Lossy
Stream size                              : 357 MiB (25%)
Alignment                                : Split accross interleaves
Interleave, duration                     : 42 ms (1.00 video frame)
Interleave, preload duration             : 500 ms

Beschreibung:
Vor.ihren.Augen.2015.German.AC3.BDRiP.XviD-FIJ
Die beiden ehrgeizigen FBI-Ermittler Ray (Chiwetel Ejiofor) und Jess (Julia Roberts) sind ein eingespieltes Team und arbeiten eng mit der, für sie zuständigen, Staatsanwältin Claire (Nicole Kidman) zusammen. Doch dann wird eines Tages Jess’ jugendliche Tochter auf brutale Weise und scheinbar ohne jegliches Motiv ermordet...Als sie meinen, den Mörder gefunden zu haben, müssen sie ihn, aus Mangel an Beweisen laufen lassen. 13 Jahre später, in denen Ray jeden Tag wie besessen versucht hat, den schwer zu fassenden Täter zu finden, stößt er auf eine neue Spur. Er ist sich sicher, den Fall endlich lösen zu können, den grausamen Mörder zu überführen und mit seinem Team, den lang ersehnten Schlussstrich ziehen zu können. Doch niemand ist auf das schockierende und entsetzliche Geheimnis vorbereitet, das die Ermittler erwartet und keinen Zweifel daran lässt, welch zerstörerische Wirkung persönliche Rache auf die menschliche Seele haben kann.
Direct Download Links | DDL-Links

Ähnliche Releases der Kategorie