WWE.WrestleMania.32.2016.PPV.1080p.WEBRip.x264-FMN

4. April 2016 von
WWE.WrestleMania.32.2016.PPV.1080p.WEBRip.x264-FMN Warez-World
Aufrufe: 285 Hits
Vote 4 Us
Release:
WWE WrestleMania 32 WEB-RIP
Genre:
Sport
Laufzeit:
289 Min.
Größe:
9679 MB
Passwort:
Warez-World.org
Sprachen:
Video Codec:
MPEG-4 H.264 / AVC
Audio Stream:
Stereo
Info:
Zeige NFOVerberge NFO
General
Format                                   : MPEG-4
Format profile                           : Base Media
Codec ID                                 : isom
File size                                : 9.45 GiB
Duration                                 : 4h 49mn
Overall bit rate mode                    : Constant
Overall bit rate                         : 4 673 Kbps
Writing application                      : Lavf57.29.101

Video
ID                                       : 1
Format                                   : AVC
Format/Info                              : Advanced Video Codec
Format settings, CABAC                   : Yes
Format settings, ReFrames                : 3 frames
Codec ID                                 : avc1
Codec ID/Info                            : Advanced Video Coding
Duration                                 : 4h 49mn
Bit rate mode                            : Constant
Bit rate                                 : 4 500 Kbps
Width                                    : 1 920 pixels
Height                                   : 1 080 pixels
Display aspect ratio                     : 16:9
Frame rate mode                          : Variable
Frame rate                               : 29.970 fps
Minimum frame rate                       : 25.641 fps
Maximum frame rate                       : 33.333 fps
Standard                                 : NTSC
Color space                              : YUV
Chroma subsampling                       : 4:2:0
Bit depth                                : 8 bits
Scan type                                : Progressive
Bits/(Pixel*Frame)                       : 0.072
Stream size                              : 9.11 GiB (96%)
Color range                              : Limited

Audio
ID                                       : 2
Format                                   : AAC
Format/Info                              : Advanced Audio Codec
Format profile                           : LC
Codec ID                                 : 40
Duration                                 : 4h 49mn
Source duration                          : 4h 49mn
Bit rate mode                            : Constant
Bit rate                                 : 160 Kbps
Channel(s)                               : 2 channels
Channel positions                        : Front: L R
Sampling rate                            : 44.1 KHz
Compression mode                         : Lossy
Stream size                              : 331 MiB (3%)
Source stream size                       : 331 MiB (3%)

Beschreibung:
WWE.WrestleMania.32.2016.PPV.1080p.WEBRip.x264-FMN
WWE Wrestlemania 2016 April 03, 2016 AT&T Stadium | Arlington, Texas, USA United States Championship Match Kalisto (c) vs. Ryback The Total Divas vs. B.A.D. & Blonde Ladder Match for Intercontinental Championship Kevin Owens (c) vs. Sami Zayn vs. Stardust vs. Dolph Ziggler vs. The Miz vs. Zack Ryder vs. Sin Cara Singles Match AJ Styles vs. Chris Jericho No Holds Barred Street Fight Match Dean Ambrose vs. Brock Lesnar 3 on 3 Tag Team Match The New Day (c) vs. League of Nations Hell in a Cell Match Shane McMahon vs. Undertaker Andre the Giant Memorial Battle Royal Divas Championship Match Charlotte (c) vs. Becky Lynch vs. Sasha Banks WWE World Heavyweight Championship Match Triple H (c) vs. Roman Reigns
Direct Download Links | DDL-Links

Ähnliche Releases der Kategorie