WWE.WrestleMania.32.2016.PPV.WEBRip.x264-FMN

4. April 2016 von
WWE.WrestleMania.32.2016.PPV.WEBRip.x264-FMN Warez-World
Aufrufe: 327 Hits
Vote 4 Us
Release:
WWE WrestleMania 32 WEB-RIP
Genre:
Sport
Laufzeit:
290 Min.
Größe:
2505 MB
Passwort:
Warez-World.org
Sprachen:
Video Codec:
MPEG-4 H.264 / AVC
Audio Stream:
Stereo
Info:
Zeige NFOVerberge NFO
General
Format                                   : MPEG-4
Format profile                           : Base Media
Codec ID                                 : isom
File size                                : 2.45 GiB
Duration                                 : 4h 50mn
Overall bit rate mode                    : Constant
Overall bit rate                         : 1 206 Kbps
Writing application                      : Lavf57.29.101

Video
ID                                       : 1
Format                                   : AVC
Format/Info                              : Advanced Video Codec
Format settings, CABAC                   : Yes
Format settings, ReFrames                : 3 frames
Codec ID                                 : avc1
Codec ID/Info                            : Advanced Video Coding
Duration                                 : 4h 50mn
Bit rate mode                            : Constant
Bit rate                                 : 1 100 Kbps
Width                                    : 700 pixels
Height                                   : 394 pixels
Display aspect ratio                     : 16:9
Frame rate mode                          : Variable
Frame rate                               : 29.970 fps
Original frame rate                      : 30.000 fps
Minimum frame rate                       : 27.778 fps
Maximum frame rate                       : 33.333 fps
Standard                                 : NTSC
Color space                              : YUV
Chroma subsampling                       : 4:2:0
Bit depth                                : 8 bits
Scan type                                : Progressive
Bits/(Pixel*Frame)                       : 0.133
Stream size                              : 2.23 GiB (91%)
Color range                              : Limited

Audio
ID                                       : 2
Format                                   : AAC
Format/Info                              : Advanced Audio Codec
Format profile                           : LC
Codec ID                                 : 40
Duration                                 : 4h 50mn
Bit rate mode                            : Constant
Bit rate                                 : 96.0 Kbps
Channel(s)                               : 2 channels
Channel positions                        : Front: L R
Sampling rate                            : 44.1 KHz
Compression mode                         : Lossy
Stream size                              : 199 MiB (8%)

Beschreibung:
WWE.WrestleMania.32.2016.PPV.WEBRip.x264-FMN
Aron feiert seinen siebten Geburtstag. Auf den ersten Blick ist alles gut, doch seinen größten Wunsch kann er niemandem verraten. Erst als der Berufsmagier Pit ein Kaninchen vor seinen Augen verschwinden lässt, weiß der Junge, was zu tun ist.
Direct Download Links | DDL-Links

Ähnliche Releases der Kategorie