WWE.WrestleMania.32.PPV.720p.WEBRip.h264-WD

4. April 2016 von
WWE.WrestleMania.32.PPV.720p.WEBRip.h264-WD Warez-World
Aufrufe: 287 Hits
Vote 4 Us
Release:
WWE WrestleMania 32 WEB-RIP
Genre:
Sport
Laufzeit:
290 Min.
Größe:
9446 MB
Passwort:
Warez-World.org
Sprachen:
Video Codec:
MPEG-4 H.264 / AVC
Audio Stream:
Stereo
Info:
Zeige NFOVerberge NFO
General
Format                                   : MPEG-4
Format profile                           : Base Media
Codec ID                                 : isom
File size                                : 9.22 GiB
Duration                                 : 4h 52mn
Overall bit rate mode                    : Constant
Overall bit rate                         : 4 508 Kbps
Writing application                      : Lavf57.20.100

Video
ID                                       : 1
Format                                   : AVC
Format/Info                              : Advanced Video Codec
Format settings, CABAC                   : Yes
Format settings, ReFrames                : 4 frames
Codec ID                                 : avc1
Codec ID/Info                            : Advanced Video Coding
Duration                                 : 4h 52mn
Bit rate mode                            : Constant
Bit rate                                 : 4 372 Kbps
Width                                    : 1 280 pixels
Height                                   : 720 pixels
Display aspect ratio                     : 16:9
Frame rate mode                          : Constant
Frame rate                               : 29.970 fps
Color space                              : YUV
Chroma subsampling                       : 4:2:0
Bit depth                                : 8 bits
Scan type                                : Progressive
Bits/(Pixel*Frame)                       : 0.158
Stream size                              : 8.95 GiB (97%)

Audio
ID                                       : 2
Format                                   : AAC
Format/Info                              : Advanced Audio Codec
Format profile                           : LC
Codec ID                                 : 40
Duration                                 : 4h 52mn
Bit rate mode                            : Constant
Bit rate                                 : 125 Kbps
Channel(s)                               : 2 channels
Channel positions                        : Front: L R
Sampling rate                            : 48.0 KHz
Compression mode                         : Lossy
Stream size                              : 263 MiB (3%)

Text
ID                                       : 1-CC1
Format                                   : EIA-608
Muxing mode                              : SCTE 128 / DTVCC Transport
Muxing mode, more info                   : Muxed in Video #1
Duration                                 : 4h 52mn
Bit rate mode                            : Constant
Stream size                              : 0.00 Byte (0%)
Encoded stream size                      : 0.00 Byte (0%)

Beschreibung:
WWE.WrestleMania.32.PPV.720p.WEBRip.h264-WD
WWE Wrestlemania 2016 April 03, 2016 AT&T Stadium | Arlington, Texas, USA United States Championship Match Kalisto (c) vs. Ryback The Total Divas vs. B.A.D. & Blonde Ladder Match for Intercontinental Championship Kevin Owens (c) vs. Sami Zayn vs. Stardust vs. Dolph Ziggler vs. The Miz vs. Zack Ryder vs. Sin Cara Singles Match AJ Styles vs. Chris Jericho No Holds Barred Street Fight Match Dean Ambrose vs. Brock Lesnar 3 on 3 Tag Team Match The New Day (c) vs. League of Nations Hell in a Cell Match Shane McMahon vs. Undertaker Andre the Giant Memorial Battle Royal Divas Championship Match Charlotte (c) vs. Becky Lynch vs. Sasha Banks WWE World Heavyweight Championship Match Triple H (c) vs. Roman Reigns
Direct Download Links | DDL-Links

Ähnliche Releases der Kategorie