WWE.Wrestlemania.32.PPV.WEBRip.x264-jkkk

4. April 2016 von
WWE.Wrestlemania.32.PPV.WEBRip.x264-jkkk Warez-World
Aufrufe: 370 Hits
Vote 4 Us
Release:
WWE Wrestlemania 32 WEB-RIP
Genre:
Sport
Laufzeit:
290 Min.
Größe:
2970 MB
Passwort:
Warez-World.org
Sprachen:
Video Codec:
MPEG-4 H.264 / AVC
Audio Stream:
Stereo
Info:
Zeige NFOVerberge NFO
General
Format                                   : MPEG-4
Format profile                           : Base Media
Codec ID                                 : isom
File size                                : 2.90 GiB
Duration                                 : 4h 48mn
Overall bit rate                         : 1 437 Kbps
Writing application                      : Lavf57.10.101

Video
ID                                       : 1
Format                                   : AVC
Format/Info                              : Advanced Video Codec
Format settings, CABAC                   : Yes
Format settings, ReFrames                : 4 frames
Codec ID                                 : avc1
Codec ID/Info                            : Advanced Video Coding
Duration                                 : 4h 48mn
Bit rate                                 : 1 300 Kbps
Width                                    : 700 pixels
Height                                   : 400 pixels
Display aspect ratio                     : 16:9
Frame rate mode                          : Constant
Frame rate                               : 30.000 fps
Color space                              : YUV
Chroma subsampling                       : 4:2:0
Bit depth                                : 8 bits
Scan type                                : Progressive
Bits/(Pixel*Frame)                       : 0.155
Stream size                              : 2.62 GiB (90%)
Writing library                          : x264 core 148 r2638 7599210
Encoding settings                        : cabac=1 / ref=3 / deblock=1:0:0 / analyse=0x3:0x113 / me=hex / subme=7 / psy=1 / psy_rd=1.00:0.00 / mixed_ref=1 / me_range=16 / chroma_me=1 / trellis=1 / 8x8dct=1 / cqm=0 / deadzone=21,11 / fast_pskip=1 / chroma_qp_offset=-2 / threads=12 / lookahead_threads=2 / sliced_threads=0 / nr=0 / decimate=1 / interlaced=0 / bluray_compat=0 / constrained_intra=0 / bframes=3 / b_pyramid=2 / b_adapt=1 / b_bias=0 / direct=1 / weightb=1 / open_gop=0 / weightp=2 / keyint=250 / keyint_min=25 / scenecut=40 / intra_refresh=0 / rc_lookahead=40 / rc=abr / mbtree=1 / bitrate=1300 / ratetol=1.0 / qcomp=0.60 / qpmin=0 / qpmax=69 / qpstep=4 / ip_ratio=1.40 / aq=1:1.00

Audio
ID                                       : 2
Format                                   : AAC
Format/Info                              : Advanced Audio Codec
Format profile                           : LC
Codec ID                                 : 40
Duration                                 : 4h 48mn
Duration_LastFrame                       : -9ms
Bit rate mode                            : Constant
Bit rate                                 : 128 Kbps
Channel(s)                               : 2 channels
Channel(s)_Original                      : 1 channel
Channel positions                        : Front: C
Sampling rate                            : 48.0 KHz
Compression mode                         : Lossy
Stream size                              : 265 MiB (9%)

Beschreibung:
WWE.Wrestlemania.32.PPV.WEBRip.x264-jkkk
WWE Wrestlemania 2016 April 03, 2016 AT&T Stadium | Arlington, Texas, USA United States Championship Match Kalisto (c) vs. Ryback The Total Divas vs. B.A.D. & Blonde Ladder Match for Intercontinental Championship Kevin Owens (c) vs. Sami Zayn vs. Stardust vs. Dolph Ziggler vs. The Miz vs. Zack Ryder vs. Sin Cara Singles Match AJ Styles vs. Chris Jericho No Holds Barred Street Fight Match Dean Ambrose vs. Brock Lesnar 3 on 3 Tag Team Match The New Day (c) vs. League of Nations Hell in a Cell Match Shane McMahon vs. Undertaker Andre the Giant Memorial Battle Royal Divas Championship Match Charlotte (c) vs. Becky Lynch vs. Sasha Banks WWE World Heavyweight Championship Match Triple H (c) vs. Roman Reigns
Direct Download Links | DDL-Links

Ähnliche Releases der Kategorie