X.Men.Apocalypse.2016.German.AD.HC.WEBRiP.XViD-GOT

31. Juli 2016 von
X.Men.Apocalypse.2016.German.AD.HC.WEBRiP.XViD-GOT Warez-World
Aufrufe: 36 Hits
Vote 4 Us
Release:
X-Men: Apocalypse WEB-RIP
Genre:
Action
Laufzeit:
144 Min.
Größe:
2031 MB
Passwort:
Warez-World.org
Sprachen:
Video Codec:
MPEG-4 DivX / Xvid
Audio Stream:
Line
Bewertung:
Video Vorschau:
Online Stream:
Info:
Zeige NFOVerberge NFO
General
Format                                   : AVI
Format/Info                              : Audio Video Interleave
Format profile                           : OpenDML
File size                                : 1.98 GiB
Duration                                 : 2h 23mn
Overall bit rate                         : 1 977 Kbps
Writing application                      : Lavf57.40.101

Video
ID                                       : 0
Format                                   : MPEG-4 Visual
Format settings, BVOP                    : No
Format settings, QPel                    : No
Format settings, GMC                     : No warppoints
Format settings, Matrix                  : Default (H.263)
Codec ID                                 : XVID
Codec ID/Hint                            : XviD
Duration                                 : 2h 23mn
Bit rate                                 : 1 773 Kbps
Width                                    : 720 pixels
Height                                   : 400 pixels
Display aspect ratio                     : 16:9
Frame rate                               : 29.970 fps
Color space                              : YUV
Chroma subsampling                       : 4:2:0
Bit depth                                : 8 bits
Scan type                                : Progressive
Compression mode                         : Lossy
Bits/(Pixel*Frame)                       : 0.205
Stream size                              : 1.78 GiB (90%)
Writing library                          : XviD 67

Audio
ID                                       : 1
Format                                   : AC-3
Format/Info                              : Audio Coding 3
Mode extension                           : CM (complete main)
Format settings, Endianness              : Big
Codec ID                                 : 2000
Duration                                 : 2h 23mn
Bit rate mode                            : Constant
Bit rate                                 : 192 Kbps
Channel(s)                               : 2 channels
Channel positions                        : Front: L R
Sampling rate                            : 48.0 KHz
Bit depth                                : 16 bits
Compression mode                         : Lossy
Stream size                              : 197 MiB (10%)
Alignment                                : Aligned on interleaves
Interleave, duration                     : 32 ms (0.96 video frame)

Beschreibung:
X.Men.Apocalypse.2016.German.AD.HC.WEBRiP.XViD-GOT
Seit Anbeginn der Menschheit wurde er als Gott verehrt: Apocalypse, der erste und mächtigste Mutant des Marvel X-Men Universums, vereint die Kräfte vieler verschiedener Mutanten und ist dadurch unsterblich und unbesiegbar. Nachdem Apocalypse nach tausenden von Jahren erwacht, ist er desillusioniert von der Entwicklung der Welt und rekrutiert ein Team von mächtigen Mutanten - unter ihnen der entmutigte Magneto - um die Menschheit zu reinigen, eine neue Weltordnung zu erschaffen und über alles zu herrschen. Als das Schicksal der Erde in der Schwebe ist, muss Raven mit Hilfe von Prof. X ein Team junger Mutanten anführen, um ihren größten Erzfeind aufzuhalten und die Auslöschung der Menschheit zu verhindern...
Direct Download Links | DDL-Links

Ähnliche Releases der Kategorie