X-Men.Apocalypse.2016.German.TS.LD.XViD-D3ADPOOL

23. Mai 2016 von
X-Men.Apocalypse.2016.German.TS.LD.XViD-D3ADPOOL Warez-World
Aufrufe: 31 Hits
Vote 4 Us
Release:
X-Men Apocalypse TS
Genre:
Action
Laufzeit:
144 Min.
Größe:
1134 MB
Passwort:
Warez-World.org
Sprachen:
Video Codec:
MPEG-4 DivX / Xvid
Audio Stream:
Line
Bewertung:
Video Vorschau:
Online Stream:
Info:
Zeige NFOVerberge NFO
General
Complete name                            : xmen9tsld.avi
Format                                   : AVI
Format/Info                              : Audio Video Interleave
Format profile                           : OpenDML
Format settings                          : rec
File size                                : 1.10 GiB
Duration                                 : 2h 11mn
Overall bit rate                         : 1 199 Kbps
Writing application                      : AVI-Mux GUI 1.17.8.3, Feb 16 201019:42:50

Video
ID                                       : 0
Format                                   : MPEG-4 Visual
Format profile                           : Advanced Simple@L5
Format settings, BVOP                    : 2
Format settings, QPel                    : No
Format settings, GMC                     : No warppoints
Format settings, Matrix                  : Default (MPEG)
Codec ID                                 : XVID
Codec ID/Hint                            : XviD
Duration                                 : 2h 11mn
Bit rate                                 : 1 002 Kbps
Width                                    : 720 pixels
Height                                   : 272 pixels
Display aspect ratio                     : 2.647
Frame rate                               : 23.976 (24000/1001) fps
Color space                              : YUV
Chroma subsampling                       : 4:2:0
Bit depth                                : 8 bits
Scan type                                : Progressive
Compression mode                         : Lossy
Bits/(Pixel*Frame)                       : 0.213
Stream size                              : 941 MiB (84%)
Writing library                          : XviD 67

Audio
ID                                       : 1
Format                                   : AC-3
Format/Info                              : Audio Coding 3
Mode extension                           : CM (complete main)
Format settings, Endianness              : Big
Codec ID                                 : 2000
Duration                                 : 2h 11mn
Bit rate mode                            : Constant
Bit rate                                 : 192 Kbps
Channel(s)                               : 2 channels
Channel positions                        : Front: L R
Sampling rate                            : 48.0 KHz
Frame rate                               : 31.250 fps (1536 spf)
Compression mode                         : Lossy
Stream size                              : 180 MiB (16%)
Alignment                                : Aligned on interleaves
Interleave, duration                     : 64 ms (1.53 video frames)
Interleave, preload duration             : 192 ms
Beschreibung:
X-Men.Apocalypse.2016.German.TS.LD.XViD-D3ADPOOL
Seit Anbeginn der Menschheit wurde er als Gott verehrt: Apocalypse, der erste und mächtigste Mutant des Marvel X-Men Universums, vereint die Kräfte vieler verschiedener Mutanten und ist dadurch unsterblich und unbesiegbar. Nachdem Apocalypse nach tausenden von Jahren erwacht, ist er desillusioniert von der Entwicklung der Welt und rekrutiert ein Team von mächtigen Mutanten - unter ihnen der entmutigte Magneto - um die Menschheit zu reinigen, eine neue Weltordnung zu erschaffen und über alles zu herrschen. Als das Schicksal der Erde in der Schwebe ist, muss Raven mit Hilfe von Prof. X ein Team junger Mutanten anführen, um ihren größten Erzfeind aufzuhalten und die Auslöschung der Menschheit zu verhindern...
Direct Download Links | DDL-Links

Ähnliche Releases der Kategorie