X-Men.Apocalypse.2016.HDTC.LD.German.DL.720p.x264-CharlesXavier

4. Juni 2016 von
X-Men.Apocalypse.2016.HDTC.LD.German.DL.720p.x264-CharlesXavier Warez-World
Aufrufe: 123 Hits
Vote 4 Us
Release:
X-Men Apocalypse TC
Genre:
Action
Laufzeit:
144 Min.
Größe:
3706 MB
Passwort:
Warez-World.org
Sprachen:
Video Codec:
MPEG-4 H.264 / AVC
Audio Stream:
Line
Bewertung:
Video Vorschau:
Online Stream:
Hinweise:
MKV
Info:
Zeige NFOVerberge NFO
X-Men.Apocalypse.2016.HDTC.LD.German.DL.720p.x264-CharlesXavier

Video

Format : AVC
Format/Info : Advanced Video Codec
Format profile : High@L4.1
Format settings, CABAC : Yes
Format settings, ReFrames : 4 frames
Codec ID : V_MPEG4/ISO/AVC
Duration : 2h 23mn
Bit rate : 3 000 Kbps
Width : 1 280 pixels
Height : 528 pixels

Audio #1

Format : AC-3
Format/Info : Audio Coding 3
Mode extension : CM (complete main)
Format settings, Endianness : Big
Codec ID : A_AC3
Duration : 2h 23mn
Bit rate mode : Constant
Bit rate : 384 Kbps
Channel(s) : 6 channels
Channel positions : Front: L C R, Side: L R, LFE
Sampling rate : 48.0 KHz
Frame rate : 31.250 fps (1536 spf)
Compression mode : Lossy
Stream size : 395 MiB (11%)
Language : English

Audio #2

Format : AC-3
Format/Info : Audio Coding 3
Mode extension : CM (complete main)
Format settings, Endianness : Big
Codec ID : A_AC3
Duration : 2h 23mn
Bit rate mode : Constant
Bit rate : 192 Kbps
Channel(s) : 2 channels
Channel positions : Front: L R
Sampling rate : 48.0 KHz
Frame rate : 31.250 fps (1536 spf)
Compression mode : Lossy
Stream size : 198 MiB (5%)
Title : Cybersmoke LD
Language : German

Text

Format : UTF-8
Codec ID : S_TEXT/UTF8
Codec ID/Info : UTF-8 Plain Text
Duration : 1h 28mn
Bit rate : 2 bps
Count of elements : 79
Stream size : 1.91 KiB (0%)
Title : CTC German SUBS
Language : German
Default : Yes
Forced : Yes

Notes:
TELESYNC mit chinesischen Untertiteln.

Deutsche forced Subs sind dabei!
THX an CTC f r die Subs !

Dankeschoen fuer die (KOMPLETTE) Line
geht an Cybersmoke!

Inklusive After-Credits Szene!
Beschreibung:
X-Men.Apocalypse.2016.HDTC.LD.German.DL.720p.x264-CharlesXavier
Neuester Teil der „X-Men“-Reihe, der zehn Jahre nach dem Vorgänger „X-Men: Zukunft ist Vergangenheit“ spielt, 1983. Die Welt hat sich verändert, Mutanten werden in der Gesellschaft nun weitestgehend akzeptiert. Doch ein legendärer Bösewicht schickt sich an, Menschen wie Mutanten zu unterjochen: der einst als Gott verehrte Apocalypse (Oscar Isaac (/person/10282/Oscar-Isaac.html)), der älteste und mächtigste Mutant der Welt. Er ist unsterblich und unbesiegbar, weil er die Kräfte vieler unterschiedlicher Mutanten vereint – und er ist bei seinem Erwachen nach Tausenden von Jahren gar nicht glücklich darüber, wie sich die Welt entwickelt hat. Zur Verwirklichung seines Plans einer neuen Weltordnung bringt Apocalypse vier Mutanten unter seine Kontrolle: Magneto (Michael Fassbender (/person/3168/Michael-Fassbender.html)), Psylocke (Olivia Munn (/person/15112/Olivia-Munn.html)), Storm (Alexandra Shipp (/person/165642/Alexandra-Shipp.html)) und Angel (Ben Hardy). Es ist an Raven (Jennifer Lawrence (/person/16342/Jennifer-Lawrence.html)) und Prof. X (James McAvoy (/person/820/James-McAvoy.html)), ein Team junger Mutanten anzuführen, das sich Apocalypse in den Weg stellt…
Direct Download Links | DDL-Links

Ähnliche Releases der Kategorie