X-Men.Apocalypse.HDTS.LD.GERMAN.x264-CTC

9. Juni 2016 von
X-Men.Apocalypse.HDTS.LD.GERMAN.x264-CTC Warez-World
Aufrufe: 116 Hits
Vote 4 Us
Release:
X-Men Apocalypse TS
Genre:
Action
Laufzeit:
144 Min.
Größe:
1233 MB
Passwort:
Warez-World.org
Sprachen:
Video Codec:
MPEG-4 H.264 / AVC
Audio Stream:
Line
Bewertung:
Video Vorschau:
Online Stream:
Info:
Zeige NFOVerberge NFO
          _____________________________  
          _   ___ __    ___/_   ___  
          /      / |    |   /      / 
               ____|    |        ____
           ______  /|____|    ______  /
                  /                  / 

                      presents


     X-Men.Apocalypse.HDTS.LD.GERMAN.x264-CTC


General

Format                      : Matroska
Format version              : Version 4 / Version 2
File size                   : 1.19 GiB
Duration                    : 2h 23mn
Overall bit rate            : 1 183 Kbps
DURATION                    : 02:23:58.272000000


Video

Format                      : AVC
Duration                    : 2h 23mn
Bit rate                    : 967 Kbps
Width                       : 720 pixels
Height                      : 298 pixels
Display aspect ratio        : 2.40:1
Frame rate mode             : Constant
Frame rate                  : 29.970 fps
Scan type                   : Progressive
Stream size                 : 996 MiB (82%)
Language                    : English
DURATION                    : 02:23:58.316000000


Audio

Format                      : AC-3
Duration                    : 2h 23mn
Bit rate mode               : Constant
Bit rate                    : 192 Kbps
Channel(s)                  : 2 channels
Channel positions           : Front: L R
Sampling rate               : 48.0 KHz
Stream size                 : 198 MiB (16%)



Notes: TELESYNC mit chinesischen Untertiteln. 

       Deutsche forced Subs wurden hardcoded! 

       Dankeschoen fuer die (KOMPLETTE) Line
       geht an cybersmoke!

       Inklusive After-Credits Szene!
Beschreibung:
X-Men.Apocalypse.HDTS.LD.GERMAN.x264-CTC
Neuester Teil der „X-Men“-Reihe, der zehn Jahre nach dem Vorgänger „X-Men: Zukunft ist Vergangenheit“ spielt, 1983. Die Welt hat sich verändert, Mutanten werden in der Gesellschaft nun weitestgehend akzeptiert. Doch ein legendärer Bösewicht schickt sich an, Menschen wie Mutanten zu unterjochen: der einst als Gott verehrte Apocalypse (Oscar Isaac), der älteste und mächtigste Mutant der Welt. Er ist unsterblich und unbesiegbar, weil er die Kräfte vieler unterschiedlicher Mutanten vereint – und er ist bei seinem Erwachen nach Tausenden von Jahren gar nicht glücklich darüber, wie sich die Welt entwickelt hat. Zur Verwirklichung seines Plans einer neuen Weltordnung bringt Apocalypse vier Mutanten unter seine Kontrolle: Magneto (Michael Fassbender), Psylocke (Olivia Munn), Storm (Alexandra Shipp) und Angel (Ben Hardy). Es ist an Raven (Jennifer Lawrence) und Prof. X (James McAvoy), ein Team junger Mutanten anzuführen, das sich Apocalypse in den Weg stellt…
Direct Download Links | DDL-Links

Ähnliche Releases der Kategorie