X-Men.Apocalypse.TS.LD.GERMAN.x264-EnSabahNur

23. Mai 2016 von
X-Men.Apocalypse.TS.LD.GERMAN.x264-EnSabahNur Warez-World
Aufrufe: 131 Hits
Vote 4 Us
Release:
X - Men Apocalypse TS
Genre:
Action
Laufzeit:
144 Min.
Größe:
868 MB
Passwort:
Warez-World.org
Sprachen:
Video Codec:
MPEG-4 H.264 / AVC
Audio Stream:
Line
Bewertung:
Video Vorschau:
Online Stream:
Info:
Zeige NFOVerberge NFO
X-Men.Apocalypse.TS.LD.GERMAN.x264-EnSabahNur

General

Format                      : Matroska
File size                   : 857 MiB
Duration                    : 2h 11mn
Overall bit rate            : 913 Kbps
DURATION                    : 02:11:17.312000000


Video

Format                      : AVC
Duration                    : 2h 11mn
Bit rate                    : 703 Kbps
Width                       : 720 pixels
Height                      : 272 pixels
Frame rate mode             : Constant
Frame rate                  : 23.976 fps
Stream size                 : 660 MiB (77%)


Audio

Format                      : AC-3
Duration                    : 2h 11mn
Bit rate mode               : Constant
Bit rate                    : 192 Kbps
Channel(s)                  : 2 channels
Sampling rate               : 48.0 KHz
Stream size                 : 180 MiB (21%)


Notes: Nicht die beste Bildsource, am Anfang fehlt etwas
vom Intro, und zwischendurch ab und zu ein paar Sekunden.

Deutsche Subs fⁿr alle nicht Deutschen Parts wurden Hardcoded.

BiG THX an Cybersmoke fuer die LiNE! Wieder mal sehr gute Arbeit!
Beschreibung:
X-Men.Apocalypse.TS.LD.GERMAN.x264-EnSabahNur
Seit Anbeginn der Menschheit wurde er als Gott verehrt: Apocalypse, der erste und mächtigste Mutant des Marvel X-Men Universums, vereint die Kräfte vieler verschiedener Mutanten und ist dadurch unsterblich und unbesiegbar. Nachdem Apocalypse nach tausenden von Jahren erwacht, ist er desillusioniert von der Entwicklung der Welt und rekrutiert ein Team von mächtigen Mutanten - unter ihnen der entmutigte Magneto - um die Menschheit zu reinigen, eine neue Weltordnung zu erschaffen und über alles zu herrschen. Als das Schicksal der Erde in der Schwebe ist, muss Raven mit Hilfe von Prof. X ein Team junger Mutanten anführen, um ihren größten Erzfeind aufzuhalten und die Auslöschung der Menschheit zu verhindern...
Direct Download Links | DDL-Links

Ähnliche Releases der Kategorie