X-Men.Apocalypse.TS.LD.GERMAN.x264-EnSabahNur

23. Mai 2016 von
X-Men.Apocalypse.TS.LD.GERMAN.x264-EnSabahNur Warez-World
Aufrufe: 171 Hits
Vote 4 Us
Release:
X-Men Apocalypse (2016) TS
Genre:
Action
Laufzeit:
144 Min.
Größe:
868 MB
Passwort:
Warez-World.org
Sprachen:
Video Codec:
MPEG-4 H.264 / AVC
Audio Stream:
Line
Bewertung:
Video Vorschau:
Online Stream:
Info:
Zeige NFOVerberge NFO
X-Men.Apocalypse.TS.LD.GERMAN.x264-EnSabahNur
Format : Matroska
File size : 857 MiB
Duration : 2h 11mn
Overall bit rate : 913 Kbps
DURATION : 02:11:17.312000000
Format : AVC
Duration : 2h 11mn
Bit rate : 703 Kbps
Width : 720 pixels
Height : 272 pixels
Frame rate mode : Constant
Frame rate : 23.976 fps
Stream size : 660 MiB (77%)
Format : AC-3
Duration : 2h 11mn
Bit rate mode : Constant
Bit rate : 192 Kbps
Channel(s) : 2 channels
Sampling rate : 48.0 KHz
Stream size : 180 MiB (21%)
Notes: Nicht die beste Bildsource, am Anfang fehlt etwas
vom Intro, und zwischendurch ab und zu ein paar Sekunden.
http://www.imdb.com/title/tt3385516/
Deutsche Subs fr alle nicht Deutschen Parts wurden Hardcoded.
Beschreibung:
X-Men.Apocalypse.TS.LD.GERMAN.x264-EnSabahNur
Neuester Teil der „X-Men“-Reihe, der zehn Jahre nach dem Vorgänger „X-Men: Zukunft ist Vergangenheit“ spielt, 1983. Die Welt hat sich verändert, Mutanten werden in der Gesellschaft nun weitestgehend akzeptiert. Doch ein legendärer Bösewicht schickt sich an, Menschen wie Mutanten zu unterjochen: der einst als Gott verehrte Apocalypse (Oscar Isaac), der älteste und mächtigste Mutant der Welt. Er ist unsterblich und unbesiegbar, weil er die Kräfte vieler unterschiedlicher Mutanten vereint – und er ist bei seinem Erwachen nach Tausenden von Jahren gar nicht glücklich darüber, wie sich die Welt entwickelt hat. Zur Verwirklichung seines Plans einer neuen Weltordnung bringt Apocalypse vier Mutanten unter seine Kontrolle: Magneto (Michael Fassbender), Psylocke (Olivia Munn), Storm (Alexandra Shipp) und Angel (Ben Hardy). Es ist an Raven (Jennifer Lawrence) und Prof. X (James McAvoy), ein Team junger Mutanten anzuführen, das sich Apocalypse in den Weg stellt…
Direct Download Links | DDL-Links

Ähnliche Releases der Kategorie