Z.For.Zachariah.2015.German.AC3.BDRiP.XviD-FIJ

4. Juli 2016 von
Z.For.Zachariah.2015.German.AC3.BDRiP.XviD-FIJ Warez-World
Aufrufe: 29 Hits
Vote 4 Us
Release:
Z for Zachariah - Das letzte Kapitel der Menschheit BD-RIP
Genre:
Science Fiction
Laufzeit:
192 Min.
Größe:
1403 MB
Passwort:
Warez-World.org
Sprachen:
Video Codec:
MPEG-4 DivX / Xvid
Audio Stream:
Dolby Digital 5.1
Bewertung:
Video Vorschau:
Online Stream:
Info:
Zeige NFOVerberge NFO
General
Format                                   : AVI
Format/Info                              : Audio Video Interleave
File size                                : 1.37 GiB
Duration                                 : 1h 38mn
Overall bit rate                         : 1 998 Kbps
Writing application                      : VirtualDubModRus 1.5.10.2 (build 2540/release)
Writing library                          : VirtualDubMod build 2540/release

Video
ID                                       : 0
Format                                   : MPEG-4 Visual
Format settings, BVOP                    : No
Format settings, QPel                    : No
Format settings, GMC                     : No warppoints
Format settings, Matrix                  : Default (H.263)
Codec ID                                 : XVID
Codec ID/Hint                            : XviD
Duration                                 : 1h 38mn
Bit rate                                 : 1 542 Kbps
Width                                    : 720 pixels
Height                                   : 304 pixels
Display aspect ratio                     : 2.35:1
Frame rate                               : 24.000 fps
Color space                              : YUV
Chroma subsampling                       : 4:2:0
Bit depth                                : 8 bits
Scan type                                : Progressive
Compression mode                         : Lossy
Bits/(Pixel*Frame)                       : 0.294
Stream size                              : 1.06 GiB (77%)
Writing library                          : XviD 1.1.2 (UTC 2006-11-01)

Audio
ID                                       : 1
Format                                   : AC-3
Format/Info                              : Audio Coding 3
Mode extension                           : CM (complete main)
Format settings, Endianness              : Big
Codec ID                                 : 2000
Duration                                 : 1h 37mn
Bit rate mode                            : Constant
Bit rate                                 : 448 Kbps
Channel(s)                               : 6 channels
Channel positions                        : Front: L C R, Side: L R, LFE
Sampling rate                            : 48.0 KHz
Compression mode                         : Lossy
Stream size                              : 313 MiB (22%)
Alignment                                : Split accross interleaves
Interleave, duration                     : 42 ms (1.00 video frame)
Interleave, preload duration             : 500 ms

Beschreibung:
Z.For.Zachariah.2015.German.AC3.BDRiP.XviD-FIJ
Die 16-jährige Ann Burden aus einer amerikanischen Kleinstadt überlebt einen Atomkrieg. Als Einzige in ihrem Dorf, das abgeschnitteb vom Rest der Welt offenbar vond er Verseuchung verschont geblieben ist. Eines Tages taucht ein Unbekannter in einem Strahlenschutzanzug auf, der auf der Suche nach eben solch einem heil gebliebenen Stückschen Erde sucht.
Direct Download Links | DDL-Links

Ähnliche Releases der Kategorie