Z.For.Zachariah.German.2015.AC3.BDRiP.XVID-OMS

4. Juli 2016 von
Z.For.Zachariah.German.2015.AC3.BDRiP.XVID-OMS Warez-World
Aufrufe: 41 Hits
Vote 4 Us
Release:
Z for Zachariah - Das letzte Kapitel der Menschheit BD-RIP
Genre:
Science Fiction
Laufzeit:
192 Min.
Größe:
1279 MB
Passwort:
Warez-World.org
Sprachen:
Video Codec:
MPEG-4 DivX / Xvid
Audio Stream:
Dolby Digital 5.1
Bewertung:
Video Vorschau:
Online Stream:
Info:
Zeige NFOVerberge NFO
General
Format                                   : AVI
Format/Info                              : Audio Video Interleave
Format profile                           : OpenDML
File size                                : 1.25 GiB
Duration                                 : 1h 38mn
Overall bit rate                         : 1 822 Kbps
Movie name                               : Z.For.Zachariah.German.2015.AC3.BDRiP.XVID-OMS
Genre                                    : Sci-Fi
Recorded date                            : 2015
Writing application                      : Lavf57.2.100

Video
ID                                       : 0
Format                                   : MPEG-4 Visual
Format settings, BVOP                    : No
Format settings, QPel                    : No
Format settings, GMC                     : No warppoints
Format settings, Matrix                  : Default (H.263)
Codec ID                                 : DIVX
Codec ID/Info                            : Project Mayo
Codec ID/Hint                            : DivX 4
Duration                                 : 1h 38mn
Bit rate                                 : 1 363 Kbps
Width                                    : 720 pixels
Height                                   : 300 pixels
Display aspect ratio                     : 2.35:1
Frame rate                               : 24.000 fps
Color space                              : YUV
Chroma subsampling                       : 4:2:0
Bit depth                                : 8 bits
Scan type                                : Progressive
Compression mode                         : Lossy
Bits/(Pixel*Frame)                       : 0.263
Stream size                              : 957 MiB (75%)
Writing library                          : XviD 67

Audio
ID                                       : 1
Format                                   : AC-3
Format/Info                              : Audio Coding 3
Mode extension                           : CM (complete main)
Format settings, Endianness              : Big
Codec ID                                 : 2000
Duration                                 : 1h 37mn
Bit rate mode                            : Constant
Bit rate                                 : 448 Kbps
Channel(s)                               : 6 channels
Channel positions                        : Front: L C R, Side: L R, LFE
Sampling rate                            : 48.0 KHz
Bit depth                                : 16 bits
Compression mode                         : Lossy
Stream size                              : 313 MiB (24%)
Alignment                                : Aligned on interleaves
Interleave, duration                     : 32 ms (0.77 video frame)
Interleave, preload duration             : 64 ms
Language                                 : German

Beschreibung:
Z.For.Zachariah.German.2015.AC3.BDRiP.XVID-OMS
Die 16-jährige Ann Burden aus einer amerikanischen Kleinstadt überlebt einen Atomkrieg. Als Einzige in ihrem Dorf, das abgeschnitteb vom Rest der Welt offenbar vond er Verseuchung verschont geblieben ist. Eines Tages taucht ein Unbekannter in einem Strahlenschutzanzug auf, der auf der Suche nach eben solch einem heil gebliebenen Stückschen Erde sucht.
Direct Download Links | DDL-Links

Ähnliche Releases der Kategorie